[ Сегодня идет свободное скачивание без начисления Download ]


Статистика раздачи
Нет
 
   
 
Top  
 
 
-Морпехи 2: Поле Огня / Jarhead 2: Field of Fire (2014) BDRemux [1080p]- Год выпуска: 2014
Производство: США, BUFO, Universal Pictures
Жанр: Боевик
Режиссер: Дон Майкл Пол
Продюсер: Джеффри Бич, Филлип Дж. Рот, Джон Каппилла
Актеры: Коул Хаузер, Джош Келли, Даниэль Савре, Букем Вудбайн, Ронни Джатти, Кэсси Лэйтон, Джесси Гарсиа, Джейсон Вонг, Эсай Моралес, Стивен Лэнг
Описание фильма:
Морской пехоте США в очередной раз поручили очень ответственное и смертельно опасное задание. Они отправляются в одну из стран на Ближнем Востоке, в провинцию Гильменд. Морпехов преследуют вооруженные до зубов боевики. Сквозь град пуль и шквального огня от взрыва снарядов американские военные идут к выполнению поставленной цели. Но удастся ли им выполнить задание и остаться в живых?

Перевод: Дублированный (Лицензия CEE)
Субтитры: Отсутствуют
Дата мировой премьеры: 8 августа 2014
Продолжительность: 01:42:30
Качество видео: BDRemux [1080p]
Видеокодек: MPEG-4 AVC/H.264
Битрейт видео: ~29372 kbps
Размер кадра: 1920x1080
Аудио #1: Русский: DTS, 48.0 KHz, 6 ch, 768 Kbps, CBR
Аудио #2: Русский: AC-3, 48.0 KHz, 6 ch, 640 Kbps, CBR
Аудио #3: Английский: DTS-HD MA, 48.0 KHz, 6 ch, 3809 Kbps
Сэмпл: Скачать

MediaInfo:

Общее
Уникальный идентификатор : 190610296225159164346256270551172011673 (0x8F66352D31A9375EBC38C5F523A85699)
Полное имя : D:\Фильмы\Morpehi.2.Pole.Ognya.2014.BDRemux.1080p.mkv
Формат : Matroska
Версия формата : Version 4 / Version 2
Размер файла : 24,8 Гбайт
Продолжительность : 1 ч. 42 м.
Режим общего битрейта : Переменный
Общий поток : 34,6 Мбит/сек
Дата кодирования : UTC 2014-09-09 20:10:42
Программа кодирования : mkvmerge v7.1.0 ('Good Love') 64bit built on Jul 27 2014 13:06:55
Библиотека кодирования : libebml v1.3.0 + libmatroska v1.4.1
DURATION : 01:42:30.592000000
NUMBER_OF_FRAMES : 192206
NUMBER_OF_BYTES : 492047360
_STATISTICS_WRITING_APP : mkvmerge v7.1.0 ('Good Love') 64bit built on Jul 27 2014 13:06:55
_STATISTICS_WRITING_DATE_UTC : 2014-09-09 20:10:42
_STATISTICS_TAGS : BPS DURATION NUMBER_OF_FRAMES NUMBER_OF_BYTES
Attachment : Yes
Видео
Идентификатор : 1
Формат : AVC
Формат/Информация : Advanced Video Codec
Профиль формата : High@L4.1
Параметр CABAC формата : Да
Параметр ReFrames формата : 4 кадра
Идентификатор кодека : V_MPEG4/ISO/AVC
Продолжительность : 1 ч. 42 м.
Вид битрейта : Переменный
Максимальный битрейт : 33,0 Мбит/сек
Ширина : 1920 пикселей
Высота : 1080 пикселей
Соотношение сторон : 16:9
Режим частоты кадров : Постоянный
Частота кадров : 23,976 кадра/сек
Цветовое пространство : YUV
Субдискретизация насыщенности : 4:2:0
Битовая глубина : 8 бит
Тип развёртки : Прогрессивная
Язык : English
Default : Да
Forced : Нет
Аудио #1
Идентификатор : 2
Формат : DTS
Формат/Информация : Digital Theater Systems
Режим : 16
Параметр Endianness формата : Big
Идентификатор кодека : A_DTS
Продолжительность : 1 ч. 42 м.
Вид битрейта : Постоянный
Битрейт : 768 Кбит/сек
Каналы : 6 каналов
Расположение каналов : Front: L C R, Side: L R, LFE
Частота : 48,0 КГц
Битовая глубина : 24 бит
Метод сжатия : С потерями
Размер потока : 563 Мбайт (2%)
Заголовок : DTS / 5.1 / 768 Kbps / Licence CCE
Язык : Russian
Default : Да
Forced : Нет
Аудио #2
Идентификатор : 3
Формат : AC-3
Формат/Информация : Audio Coding 3
Расширение режима : CM (complete main)
Параметр Endianness формата : Big
Идентификатор кодека : A_AC3
Продолжительность : 1 ч. 42 м.
Вид битрейта : Постоянный
Битрейт : 640 Кбит/сек
Каналы : 6 каналов
Расположение каналов : Front: L C R, Side: L R, LFE
Частота : 48,0 КГц
Битовая глубина : 16 бит
Метод сжатия : С потерями
Размер потока : 469 Мбайт (2%)
Заголовок : AC3 / 5.1 / 640 Kbps / Licence CCE
Язык : Russian
Default : Нет
Forced : Нет
Аудио #3
Идентификатор : 4
Формат : DTS
Формат/Информация : Digital Theater Systems
Профиль формата : MA / Core
Режим : 16
Параметр Endianness формата : Big
Идентификатор кодека : A_DTS
Продолжительность : 1 ч. 42 м.
Вид битрейта : Переменный
Битрейт : Неизвестно / 1509 Кбит/сек
Каналы : 6 каналов
Расположение каналов : Front: L C R, Side: L R, LFE
Частота : 48,0 КГц
Битовая глубина : 24 бит
Метод сжатия : Без потерь / Lossy
Заголовок : DTS-HD MA / 5.1 / 3809 Kbps / Original
Язык : English
Default : Нет
Forced : Нет
Меню
00:00:00.000 : en:00:00:00.000
00:04:32.022 : en:00:04:32.022
00:10:00.183 : en:00:10:00.183
00:14:43.883 : en:00:14:43.883
00:20:42.575 : en:00:20:42.575
00:24:20.668 : en:00:24:20.668
00:29:05.911 : en:00:29:05.911
00:32:23.358 : en:00:32:23.358
00:38:24.677 : en:00:38:24.677
00:44:27.999 : en:00:44:27.999
00:48:07.093 : en:00:48:07.093
00:56:08.574 : en:00:56:08.574
00:58:16.743 : en:00:58:16.743
01:05:41.729 : en:01:05:41.729
01:10:51.456 : en:01:10:51.456
01:12:15.581 : en:01:12:15.581
01:21:46.527 : en:01:21:46.527
01:29:07.133 : en:01:29:07.133
01:35:12.457 : en:01:35:12.457
01:39:02.478 : en:01:39:02.478

Avdump:

File: D:\Фильмы\Morpehi.2.Pole.Ognya.2014.BDRemux.1080p.mkv
Duration: 01:42:31 (6150.59)
Track #1: video
lang: Unknown (1)
codc: V_MPEG4/ISO/AVC -> H264/AVC (22)
reso: 1920x1080 -> 16:9
fram: 23.976 fps
rate: 29372 kbps (29371.9)
dura: 01:42:30 (6150.48)
size: 21.03 GB (22581437342)
Track #2: audio (DTS / 5.1 / 768 Kbps / Licence CCE)
lang: rus -> Russian (15)
codc: A_DTS -> DTS (13)
chan: 6 -> 5.1 Surround
samp: 48000 Hz
rate: 768 kbps (768.11)
dura: 01:42:31 (6150.54)
size: 563.18 MB (590533802)
Track #3: audio (AC3 / 5.1 / 640 Kbps / Licence CCE)
lang: rus -> Russian (15)
codc: A_AC3 -> AC3 (2)
chan: 6 -> 5.1 Surround
samp: 48000 Hz
rate: 640 kbps (640.04)
dura: 01:42:31 (6150.56)
size: 469.28 MB (492078936)
Track #4: audio (DTS-HD MA / 5.1 / 3809 Kbps / Original)
lang: Unknown (1)
codc: A_DTS -> DTS (13)
chan: 6 -> 5.1 Surround
samp: 48000 Hz
rate: 3810 kbps (3809.55)
dura: 01:42:31 (6150.54)
size: 2.73 GB (2928851535)
Sizes: (check sanity)
disk: 24.77 GB (26596467579)
atts: 517.15 KB (529566)
trac: 4.77 GB (5118065135) [based on track size]
bitr: 24.77 GB (26592860870) [based on bitrate]
tdif: 20.00 GB (21477872878) 80.75%
bdif: 2.93 MB (3077142) 0.01%
Скриншоты:
Время раздачи: 24/7
(до 5 скачавших)

[Цитировать]



Показать сообщения:    

Текущее время: 09-Дек 06:55

Часовой пояс: UTC + 3


Вы не можете начинать темы
Вы не можете отвечать на сообщения
Вы не можете редактировать свои сообщения
Вы не можете удалять свои сообщения
Вы не можете голосовать в опросах
Вы не можете прикреплять файлы к сообщениям
Вы не можете скачивать файлы

!ВНИМАНИЕ!
Сайт не предоставляет электронные версии произведений, а занимается лишь коллекционированием и каталогизацией ссылок, присылаемых и публикуемых на форуме нашими читателями. Если вы являетесь правообладателем какого-либо представленного материала и не желаете, чтобы ссылка на него находилась в нашем каталоге, свяжитесь с нами, и мы незамедлительно удалим ее. Файлы для обмена на трекере предоставлены пользователями сайта, и администрация не несет ответственности за их содержание. Просьба не заливать файлы, защищенные авторскими правами, а также файлы нелегального содержания!