[ Сегодня идет свободное скачивание без начисления Download ]


Статистика раздачи
Нет
 
   
 
Top  
 
 
-Слепая / Blind (2014) DVDRip- Год выпуска: 2014
Производство: Норвегия / Lemming Film, Motlys
Жанр: Драма
Описание фильма: После потери зрения Ингрид почти не покидает квартиру. Она еще не забыла облик окружающего мира, но образы, бывшие когда-то столь ясными, теперь заменяются мрачными видениями. Ингрид подозревает, что муж обманывает ее, говоря, что ходит на работу. Остается ли Мортен в квартире? Тихо передвигаясь, он рассматривает ее? Или, прикидываясь, что пишет электронное письмо коллеге, болтает с любовницей?
Старый приятель Мортена по работе Эйнар большой любитель кино и музыки. Но вместо того, чтобы поощрять свою страсть, он бродит по просторам сетевого порно и шпионит за Элин, шведкой, что живет через улицу. После развода она потеряла всякую связь с обществом. Для нее начинаются абсурдные, необъяснимые события, а поговорить ей об этом не с кем, кроме десятилетней дочери.
Режиссер: Эскиль Вогт
Продюсер: Сигве Эндресен, Ханс-Йорген Оснес, Йост де Фриз
Актеры: Эллен Доррит Петерсен, Хенрик Рафаелсен, Вера Виталий
Перевод: Одноголосый закадровый, любительский
Озвучка / Автор перевода: Lord32x
Субтитры: Отсутствуют

Дата мировой премьеры: 19 января 2014
Продолжительность: 01:31:59
Качество видео: DVDRip
Видеокодек: Xvid
Битрейт видео: ~1710kbps
Размер кадра: 720x384
Аудиокодек: AC3 5.1
Битрейт аудио: 384kbps
Сэмпл: Скачать

MediaInfo

Общее
Полное имя : Blind.2014.DVDRip.avi
Формат : AVI
Формат/Информация : Audio Video Interleave
Размер файла : 1,35 Гбайт
Продолжительность : 1 ч. 31 м.
Общий поток : 2104 Кбит/сек
Программа кодирования : VirtualDubMod 1.5.10.3 | www.virtualdub-fr.org || (build 2550/release)
Библиотека кодирования : VirtualDubMod build 2550/release
Видео
Идентификатор : 0
Формат : MPEG-4 Visual
Профиль формата : Advanced Simple@L5
Параметр BVOP формата : 3
Параметр QPel формата : Да
Параметр GMC формата : Без точки перехода
Параметр матрицы формата : Default (H.263)
Идентификатор кодека : XVID
Идентификатор кодека/Подсказка : XviD
Продолжительность : 1 ч. 31 м.
Битрейт : 1710 Кбит/сек
Ширина : 720 пикселей
Высота : 384 пикселя
Соотношение сторон : 1,85:1
Частота кадров : 25,000 кадров/сек
Цветовое пространство : YUV
Субдискретизация насыщенности : 4:2:0
Битовая глубина : 8 бит
Тип развёртки : Прогрессивная
Метод сжатия : С потерями
Бит/(Пиксели*Кадры) : 0.247
Размер потока : 1,10 Гбайт (81%)
Библиотека кодирования : XviD 1.2.1 (UTC 2008-12-04)
Аудио
Идентификатор : 1
Формат : AC-3
Формат/Информация : Audio Coding 3
Расширение режима : CM (complete main)
Параметр Endianness формата : Big
Идентификатор кодека : 2000
Продолжительность : 1 ч. 31 м.
Вид битрейта : Постоянный
Битрейт : 384 Кбит/сек
Каналы : 6 каналов
Расположение каналов : Front: L C R, Side: L R, LFE
Частота : 48,0 КГц
Битовая глубина : 16 бит
Метод сжатия : С потерями
Размер потока : 253 Мбайт (18%)
Выравнивание : Разделение по промежуткам
Продолжительность промежутка : 40 мс. (1,00 видеокадр)
Время предзагрузки промежутка : 500 мс.
Скриншоты:

Время раздачи: с 09:00 до 23:30

[Цитировать]



Показать сообщения:    

Текущее время: 10-Дек 17:47

Часовой пояс: UTC + 3


Вы не можете начинать темы
Вы не можете отвечать на сообщения
Вы не можете редактировать свои сообщения
Вы не можете удалять свои сообщения
Вы не можете голосовать в опросах
Вы не можете прикреплять файлы к сообщениям
Вы не можете скачивать файлы

!ВНИМАНИЕ!
Сайт не предоставляет электронные версии произведений, а занимается лишь коллекционированием и каталогизацией ссылок, присылаемых и публикуемых на форуме нашими читателями. Если вы являетесь правообладателем какого-либо представленного материала и не желаете, чтобы ссылка на него находилась в нашем каталоге, свяжитесь с нами, и мы незамедлительно удалим ее. Файлы для обмена на трекере предоставлены пользователями сайта, и администрация не несет ответственности за их содержание. Просьба не заливать файлы, защищенные авторскими правами, а также файлы нелегального содержания!