[ Сегодня идет свободное скачивание без начисления Download ]


Статистика раздачи
Нет
 
   
 
Top  
 
 
-Медовый месяц / Honeymoon (2014) HDTVRip
«After the ceremony comes the ritual»
- Год выпуска: 2014
Производство: США | Fewlas Entertainment
Жанр: Ужасы
Режиссер: Ли Джаньяк
Продюсер: Патрик Бэйкер, Джули Паркер Бенелло
Актеры: Роуз Лесли, Гарри Тредэвэй, Бен Хубер, Ханна Браун, Генри Лоуренс
Описание фильма:
Молодожёны Пол и Би отправляются в удалённое местечко у озера, чтобы провести там медовый месяц. Вскоре после прибытия Пол находит Би блуждающей посреди ночи в лесу. И по мере того, как она становится всё более отчуждённой, Пол начинает подозревать, что это был не просто лунатизм и в лесу произошло что-то ужасное…
Перевод: Одноголосый закадровый, любительский
Озвучка / Автор перевода: R.A.I.M
Субтитры: Отсутствуют

Дата мировой премьеры: 7 марта 2014
Продолжительность: 01:27:28
Качество видео: HDTVRip
Видео: 720x384 (1.85:1), 23.976 fps, XviD build 73 ~1053 kbps avg, 0.159 bit/pixel
Аудио: 48 kHz, MPEG Layer 3, 2 ch, ~128.00 kbps avg
Сэмпл: Скачать

MediaInfo

General
Complete name                  : D:\фильмы\Medoavyj.mesjac.2014.HDTVRip.avi
Format                         : AVI
Format/Info                    : Audio Video Interleave
File size                      : 744 MiB
Duration                       : 1h 27mn
Overall bit rate               : 1 190 Kbps
Writing application            : VirtualDubMod 1.5.10.3 | [url=http://www.virtualdub-fr.org]www.virtualdub-fr.org[/url] || (build 2550/release)
Writing library                : VirtualDubMod build 2550/release
Video
ID                             : 0
Format                         : MPEG-4 Visual
Format profile                 : Advanced Simple@L5
Format settings, BVOP          : Yes
Format settings, QPel          : No
Format settings, GMC           : No warppoints
Format settings, Matrix        : Default (MPEG)
Codec ID                       : XVID
Codec ID/Hint                  : XviD
Duration                       : 1h 27mn
Bit rate                       : 1 053 Kbps
Width                          : 720 pixels
Height                         : 384 pixels
Display aspect ratio           : 1.85:1
Frame rate                     : 23.976 fps
Color space                    : YUV
Chroma subsampling             : 4:2:0
Bit depth                      : 8 bits
Scan type                      : Progressive
Compression mode               : Lossy
Bits/(Pixel*Frame)             : 0.159
Stream size                    : 659 MiB (88%)
Writing library                : XviD 73
Audio
ID                             : 1
Format                         : MPEG Audio
Format version                 : Version 1
Format profile                 : Layer 3
Mode                           : Joint stereo
Mode extension                 : MS Stereo
Codec ID                       : 55
Codec ID/Hint                  : MP3
Duration                       : 1h 27mn
Bit rate mode                  : Constant
Bit rate                       : 128 Kbps
Channel(s)                     : 2 channels
Sampling rate                  : 48.0 KHz
Compression mode               : Lossy
Stream size                    : 80.1 MiB (11%)
Alignment                      : Aligned on interleaves
Interleave, duration           : 42 ms (1.00 video frame)
Interleave, preload duration   : 504 ms
Writing library                : LAME3.99r
Encoding settings              : -m j -V 4 -q 2 -lowpass 17 -b 128
Скриншоты:

Время раздачи: 10:00 - 24:00

[Цитировать]



Показать сообщения:    

Текущее время: 11-Дек 01:24

Часовой пояс: UTC + 3


Вы не можете начинать темы
Вы не можете отвечать на сообщения
Вы не можете редактировать свои сообщения
Вы не можете удалять свои сообщения
Вы не можете голосовать в опросах
Вы не можете прикреплять файлы к сообщениям
Вы не можете скачивать файлы

!ВНИМАНИЕ!
Сайт не предоставляет электронные версии произведений, а занимается лишь коллекционированием и каталогизацией ссылок, присылаемых и публикуемых на форуме нашими читателями. Если вы являетесь правообладателем какого-либо представленного материала и не желаете, чтобы ссылка на него находилась в нашем каталоге, свяжитесь с нами, и мы незамедлительно удалим ее. Файлы для обмена на трекере предоставлены пользователями сайта, и администрация не несет ответственности за их содержание. Просьба не заливать файлы, защищенные авторскими правами, а также файлы нелегального содержания!