[ Сегодня идет свободное скачивание без начисления Download ]


Статистика раздачи
Нет
 
   
 
Top  
 
 
-Два лика января / The Two Faces of January (2014) HDRip- Год выпуска: 2014
Производство: Великобритания, США, Франция / Timnick Films, StudioCanal, Working Title Films
Жанр: Триллер
Режиссер: Хуссейн Амини
Продюсер: Тим Беван, Эрик Феллнер, Робин Слово, ...
Актеры: Кирстен Данст, Вигго Мортенсен, Оскар Айзек, Дэйзи Беван, Дэвид Уоршофски, Промитеас Алиферопулос, Иигит Озшенер, Никос Мавракис, Сократ Алафоуцос, Озан Тас
Описание фильма: Начало 60-х 20-го века. В Афины приезжает блестящая гламурная пара — харизматичный Честер МакФарланд и его молодая жена Колетта. Во время осмотра Акрополя они знакомятся с юным американским гидом Райдалом. Однако паре есть что скрывать, и вскоре резкий поворот событий вынуждает их пуститься в бега. Новый знакомый соглашается им помочь, но он еще не представляет, в какую передрягу себя втягивает…
Перевод: Двухголосый закадровый, любительский
Озвучка / Автор перевода: Paradox
Субтитры: Отсутствуют

Дата мировой премьеры: 11 февраля 2014
Продолжительность: 01:36:38
Качество видео: HDRip
Видеокодек: Xvid
Битрейт видео: ~1750 kbps
Размер кадра: 720x304
Аудиокодек: AC3 5.1
Битрейт аудио: 384 kbps
Сэмпл: Скачать

MediaInfo

Общее
Полное имя : The.two.faces.of.january.HDRip.avi
Формат : AVI
Формат/Информация : Audio Video Interleave
Размер файла : 1,45 Гбайт
Продолжительность : 1 ч. 36 м.
Общий поток : 2144 Кбит/сек
Программа кодирования : VirtualDubMod 1.5.10.2 (build 2540/release)
Библиотека кодирования : VirtualDubMod build 2540/release
Видео
Идентификатор : 0
Формат : MPEG-4 Visual
Профиль формата : Advanced Simple@L5
Параметр BVOP формата : 2
Параметр QPel формата : Нет
Параметр GMC формата : Без точки перехода
Параметр матрицы формата : Default (MPEG)
Идентификатор кодека : XVID
Идентификатор кодека/Подсказка : XviD
Продолжительность : 1 ч. 36 м.
Битрейт : 1750 Кбит/сек
Ширина : 720 пикселей
Высота : 304 пикселя
Соотношение сторон : 2,35:1
Частота кадров : 23,976 кадра/сек
Цветовое пространство : YUV
Субдискретизация насыщенности : 4:2:0
Битовая глубина : 8 бит
Тип развёртки : Прогрессивная
Метод сжатия : С потерями
Бит/(Пиксели*Кадры) : 0.334
Размер потока : 1,18 Гбайт (82%)
Библиотека кодирования : XviD 1.2.1 (UTC 2008-12-04)
Аудио
Идентификатор : 1
Формат : AC-3
Формат/Информация : Audio Coding 3
Расширение режима : CM (complete main)
Параметр Endianness формата : Big
Идентификатор кодека : 2000
Продолжительность : 1 ч. 36 м.
Вид битрейта : Постоянный
Битрейт : 384 Кбит/сек
Каналы : 6 каналов
Расположение каналов : Front: L C R, Side: L R, LFE
Частота : 48,0 КГц
Битовая глубина : 16 бит
Метод сжатия : С потерями
Размер потока : 265 Мбайт (18%)
Выравнивание : Разделение по промежуткам
Продолжительность промежутка : 42 мс. (1,00 видеокадр)
Время предзагрузки промежутка : 500 мс.
Скриншоты:

Время раздачи: с 09:00 до 23:30

[Цитировать]



Показать сообщения:    

Текущее время: 07-Дек 21:19

Часовой пояс: UTC + 3


Вы не можете начинать темы
Вы не можете отвечать на сообщения
Вы не можете редактировать свои сообщения
Вы не можете удалять свои сообщения
Вы не можете голосовать в опросах
Вы не можете прикреплять файлы к сообщениям
Вы не можете скачивать файлы

!ВНИМАНИЕ!
Сайт не предоставляет электронные версии произведений, а занимается лишь коллекционированием и каталогизацией ссылок, присылаемых и публикуемых на форуме нашими читателями. Если вы являетесь правообладателем какого-либо представленного материала и не желаете, чтобы ссылка на него находилась в нашем каталоге, свяжитесь с нами, и мы незамедлительно удалим ее. Файлы для обмена на трекере предоставлены пользователями сайта, и администрация не несет ответственности за их содержание. Просьба не заливать файлы, защищенные авторскими правами, а также файлы нелегального содержания!