[ Сегодня идет свободное скачивание без начисления Download ]


Статистика раздачи
Нет
 
   
 
Top  
 
 
-Два лика января / The Two Faces of January (2014) BDRip- Год выпуска: 2014
Производство: Великобритания, Франция, США / StudioCanal, Timnick Films, Working Title Films
Жанр: Триллер
Режиссер: Хуссейн Амини
Продюсер: Тим Беван, Эрик Феллнер, Робин Слово
Актеры: Кирстен Данст, Вигго Мортенсен, Оскар Айзек, Дэйзи Беван, Дэвид Уоршофски, Промитеас Алиферопулос, Иигит Озшенер, Никос Мавракис, Сократ Алафоуцос, Озан Тас
Описание фильма:
Начало 60-х 20-го века. В Афины приезжает блестящая гламурная пара — харизматичный Честер МакФарланд и его молодая жена Колетта. Во время осмотра Акрополя они знакомятся с юным американским гидом Райдалом. Однако паре есть что скрывать, и вскоре резкий поворот событий вынуждает их пуститься в бега. Новый знакомый соглашается им помочь, но он еще не представляет, в какую передрягу себя втягивает…
Перевод: Двуголосый закадровый, любительский (Paradox); Одноголосый закадровый, любительский (datynet)
Субтитры: Вшитые отключаемые
Язык субтитров: Английский

Дата мировой премьеры: 11 февраля 2014
Продолжительность: 01:36:54
Качество видео: BDRip (CHD)
Видеокодек: MPEG-4 AVC/H.264
Битрейт видео: ~4955 Kbps
Размер кадра: 1280 X 536
Аудио 1: Русский, AC3 2.0, 192 kbps, 48 kHz (DVO)
Аудио 2: Русский, AC3 2.0, 192 kbps, 44.1 kHz (VO)
Аудио 3: Английский, DTS 5.1, 1509 kbps, 48 kHz
Сэмпл: Скачать

MediaInfo:

Общее
Уникальный идентификатор : 218392083977931789263802931055622977952 (0xA44CC910F57DE0DB8DC38577436579A0)
Полное имя : D:\Films\The.Two.Faces.of.January.2014.BDRip.720p.mkv
Формат : Matroska
Версия формата : Version 2
Размер файла : 4,62 Гбайт
Продолжительность : 1 ч. 36 м.
Общий поток : 6821 Кбит/сек
Дата кодирования : UTC 2014-09-16 14:40:33
Программа кодирования : mkvmerge v5.2.0 ('I can't explain') built on Dec 18 2011 18:12:03
Библиотека кодирования : libebml v1.2.3 + libmatroska v1.3.0
Видео
Идентификатор : 1
Формат : AVC
Формат/Информация : Advanced Video Codec
Профиль формата : High@L4.1
Параметр CABAC формата : Да
Параметр ReFrames формата : 11 кадров
Идентификатор кодека : V_MPEG4/ISO/AVC
Продолжительность : 1 ч. 36 м.
Битрейт : 4955 Кбит/сек
Ширина : 1280 пикселей
Высота : 536 пикселей
Соотношение сторон : 2,40:1
Режим частоты кадров : Постоянный
Частота кадров : 23,976 кадра/сек
Цветовое пространство : YUV
Субдискретизация насыщенности : 4:2:0
Битовая глубина : 8 бит
Тип развёртки : Прогрессивная
Бит/(Пиксели*Кадры) : 0.301
Размер потока : 3,24 Гбайт (70%)
Библиотека кодирования : x264 core 142 r2431 ac76440
Настройки программы : cabac=1 / ref=11 / deblock=1:-3:-3 / analyse=0x3:0x113 / me=umh / subme=10 / psy=1 / psy_rd=1.00:0.05 / mixed_ref=1 / me_range=32 / chroma_me=1 / trellis=2 / 8x8dct=1 / cqm=0 / deadzone=21,11 / fast_pskip=0 / chroma_qp_offset=-2 / threads=18 / lookahead_threads=1 / sliced_threads=0 / nr=0 / decimate=1 / interlaced=0 / bluray_compat=0 / constrained_intra=0 / bframes=4 / b_pyramid=2 / b_adapt=2 / b_bias=0 / direct=3 / weightb=1 / open_gop=0 / weightp=2 / keyint=250 / keyint_min=23 / scenecut=40 / intra_refresh=0 / rc=2pass / mbtree=0 / bitrate=4955 / ratetol=1.0 / qcomp=0.70 / qpmin=0 / qpmax=69 / qpstep=4 / cplxblur=20.0 / qblur=0.5 / ip_ratio=1.40 / pb_ratio=1.30 / aq=2:0.90
Язык : English
Default : Да
Forced : Нет
Аудио #1
Идентификатор : 2
Формат : AC-3
Формат/Информация : Audio Coding 3
Расширение режима : CM (complete main)
Параметр Endianness формата : Big
Идентификатор кодека : A_AC3
Продолжительность : 1 ч. 36 м.
Вид битрейта : Постоянный
Битрейт : 192 Кбит/сек
Каналы : 2 канала
Расположение каналов : Front: L R
Частота : 48,0 КГц
Битовая глубина : 16 бит
Метод сжатия : С потерями
Размер потока : 133 Мбайт (3%)
Заголовок : DVO, Paradox
Язык : Russian
Default : Да
Forced : Нет
Аудио #2
Идентификатор : 3
Формат : AC-3
Формат/Информация : Audio Coding 3
Расширение режима : CM (complete main)
Параметр Endianness формата : Big
Идентификатор кодека : A_AC3
Продолжительность : 1 ч. 36 м.
Вид битрейта : Постоянный
Битрейт : 192 Кбит/сек
Каналы : 2 канала
Расположение каналов : Front: L R
Частота : 44,1 КГц
Битовая глубина : 16 бит
Метод сжатия : С потерями
Размер потока : 133 Мбайт (3%)
Заголовок : VO, datynet
Язык : Russian
Default : Нет
Forced : Нет
Аудио #3
Идентификатор : 4
Формат : DTS
Формат/Информация : Digital Theater Systems
Режим : 16
Параметр Endianness формата : Big
Идентификатор кодека : A_DTS
Продолжительность : 1 ч. 36 м.
Вид битрейта : Постоянный
Битрейт : 1509 Кбит/сек
Каналы : 6 каналов
Расположение каналов : Front: L C R, Side: L R, LFE
Частота : 48,0 КГц
Битовая глубина : 24 бит
Метод сжатия : С потерями
Размер потока : 1,02 Гбайт (22%)
Язык : English
Default : Нет
Forced : Нет
Текст #1
Идентификатор : 5
Формат : UTF-8
Идентификатор кодека : S_TEXT/UTF8
Идентификатор кодека/Информация : UTF-8 Plain Text
Язык : English
Default : Нет
Forced : Нет
Текст #2
Идентификатор : 6
Формат : UTF-8
Идентификатор кодека : S_TEXT/UTF8
Идентификатор кодека/Информация : UTF-8 Plain Text
Заголовок : SDH
Язык : English
Default : Нет
Forced : Нет
Меню
00:00:00.000 : en:00:00:00.000
00:04:46.036 : en:00:04:46.036
00:08:28.007 : en:00:08:28.007
00:13:11.040 : en:00:13:11.040
00:16:26.986 : en:00:16:26.986
00:19:28.959 : en:00:19:28.959
00:25:28.819 : en:00:25:28.819
00:31:50.617 : en:00:31:50.617
00:34:41.621 : en:00:34:41.621
00:40:23.921 : en:00:40:23.921
00:44:58.362 : en:00:44:58.362
00:51:04.520 : en:00:51:04.520
00:54:33.312 : en:00:54:33.312
01:00:38.844 : en:01:00:38.844
01:06:48.755 : en:01:06:48.755
01:10:27.223 : en:01:10:27.223
01:14:32.802 : en:01:14:32.802
01:18:37.546 : en:01:18:37.546
01:24:58.593 : en:01:24:58.593
01:30:14.618 : en:01:30:14.618
------------------x264 INFO---------------
x264 [info]: frame I:1240 Avg QP:11.76 size:128122
x264 [info]: frame P:37797 Avg QP:14.00 size: 45916
x264 [info]: frame B:99971 Avg QP:16.14 size: 16893
-Скриншоты:
-Время раздачи: С 8:00 до 22:00 до 5 скачавших

[Цитировать]



Показать сообщения:    

Текущее время: 07-Дек 19:31

Часовой пояс: UTC + 3


Вы не можете начинать темы
Вы не можете отвечать на сообщения
Вы не можете редактировать свои сообщения
Вы не можете удалять свои сообщения
Вы не можете голосовать в опросах
Вы не можете прикреплять файлы к сообщениям
Вы не можете скачивать файлы

!ВНИМАНИЕ!
Сайт не предоставляет электронные версии произведений, а занимается лишь коллекционированием и каталогизацией ссылок, присылаемых и публикуемых на форуме нашими читателями. Если вы являетесь правообладателем какого-либо представленного материала и не желаете, чтобы ссылка на него находилась в нашем каталоге, свяжитесь с нами, и мы незамедлительно удалим ее. Файлы для обмена на трекере предоставлены пользователями сайта, и администрация не несет ответственности за их содержание. Просьба не заливать файлы, защищенные авторскими правами, а также файлы нелегального содержания!