[ Сегодня идет свободное скачивание без начисления Download ]


Статистика раздачи
Нет
 
   
 
Top  
 
 
-Грань будущего / Edge of Tomorrow (2014) BDRip-«Живи. Умри. И снова»- Год выпуска: 2014
Производство: США, Австралия / Warner Bros., Village Roadshow Pictures, 3 Arts Entertainment
Жанр: Фантастика, Боевик
Режиссер: Даг Лайман
Продюсер: Джейсон Хоффс, Грегори Джейкобс, Том Лассалли
Актеры: Том Круз, Эмили Блант, Брендан Глисон, Билл Пэкстон, Джонас Армстронг, Тони Вэй, Кик Гарри, Франц Драмех, Драгомир Мрсич, Шарлотта Райли
Описание фильма:
В недалёком будущем раса инопланетян вторгается на Землю. Никакая армия в мире не может противостоять им. Майор Уильям Кейдж умирает в бою, но случается невозможное — он оказывается во временной петле. Раз за разом он попадает в один и тот же бой, сражается и умирает… снова и снова. И каждое повторяющееся сражение приближает его к разгадке того, как победить врага.
Перевод: Дублированный (iTunes)
Субтитры: Вшитые отключаемые
Язык субтитров: Русский, Украинский, Английский

Дата мировой премьеры: 28 мая 2014
Дата российской премьеры: 5 июня 2014, «Каро-Премьер»
Дата выхода DVD релиза: 2 октября 2014, «CP Дистрибуция»
Дата выхода Blu-Ray релиза: 2 октября 2014, «CP Дистрибуция»
Продолжительность: 01:53:29
Качество видео: BDRip [profile-LQ]
Видеокодек: MPEG-4 AVC/H.264
Битрейт видео: ~5379 kbps
Размер кадра: 1280 X 536
Аудио 1: Русский, AC3 5.1, 384 kbps, 48 kHz
Аудио 2: Английский, DTS 5.1, 1509 kbps, 48 kHz
Сэмпл: Скачать

Знаете ли вы, что...

• Фильм снят по мотивам романа Хироси Сакурадзаки «Всё, что тебе нужно — это убивать» (All you need is kill, 2004).
• В финальные титры не попал сценарист Данте Харпер, который в 2010 году продал сценарий этого фильма студии Warner Bros. за сумму, превышающую 1 миллион долларов.
• Том Круз начал заниматься пре-продакшном 20 июля 2012 года, менее чем через неделю после окончания работы над фильмом «Обливион» (2013).
• Первоначально главную роль предлагали Брэду Питту, но тот отклонил предложение.
• Беренис Бежо рассматривалась на роль Риты Вратаски.
• Том Круз потратил более $ 100,000 на вечеринку, посвященную окончанию съемок фильма для актеров и съемочной группы. Сам он на вечеринке не присутствовал, так как в это время заканчивал работу над своими сценами в фильме.
• Большая часть съемок фильма проходила на тех же съемочных площадках, где снимались фильмы о Гарри Поттере.
• Эмили Блант призналась, что после того, как на нее надели металлический костюм, она расплакалась, потому что он был очень тяжелым (около 38 кг) и ей предстояло 5 месяцев сниматься в нем в экшн-сценах.
• В оригинальной истории речь идет о вторжении в Токио. Рита – американка, а Кейдж – японец по имени Кейдзи Кирия, который к концу истории получает прозвище «Killer Cage».
• Персонаж Джереми Пивена был добавлен во время повторных съемок, но в итоге все сцены с его участием были вырезаны во время монтажа.
• Том Круз был одним из первых людей, узнавший о беременности Эмили Блант. У съемочной группы и актеров был промежуток в несколько месяцев между основными и повторными съемками. В этот период Эмили Блант забеременела. Она решила никому не рассказывать об этом. Срок ее беременности составлял всего несколько недель, когда актрисе нужно было вновь приступить к съемкам. Тома Круза сильно смутил тот факт, что Блант отказалась выполнять свои трюки самостоятельно во время повторных съемок, с учетом того, что в период основных съемок она все делала сама, после чего Блант и рассказала ему о своем положении.
• Для съемок картины было изготовлено 70 экзокостюмов в различной комплектации, вес которых составлял от 27 до 57 килограммов.
• В начале фильма среди кадров новостных сводок можно увидеть ролик с падением челябинского метеорита в 2013 году, который показан как часть вторжения инопланетян. При чём, эти кадры выдавались, как заснятые на территории Германии, о чём гласит надпись «breaking news: panic as meteor strikes germany» внизу экрана.
• Вертолет, который садился на Трафальгарской площади, принадлежит Королевским военно-воздушным силам Великобритании и за его штурвалом сидели профессиональные военные.
• Хотя сюжет фильма и укладывается всего в два дня, пусть и повторяющихся многократно, художники создали для съемок 47 съемочных площадок, в том числе гигантский пляж, куда было завезено 1300 тонн песка.

Ошибки в фильме

• В начале фильма голос за кадром говорит: «Они распространились от Гамбурга по всей Европе». Гамбург расположен недалеко от северного побережья Германии, но на карте показывается, что распространение началось откуда-то из центра Европы, около Мюнхена.
• На карте, которую показывают в начале фильма, Любляна отмечена как столица Хорватии, хотя на самом деле она является столицей Словении.
• Во время первого разговора с генералом Бригхэмом, одна из пуговиц на куртке Кейджа расстегнута. В следующем кадре его куртка застегнута на все пуговицы.
• На карте в начале фильма видно, что столица Венгрии — Будапешт, расположена не там, где находится на самом деле.

MediaInfo:

Общее
Уникальный идентификатор : 178085807098808068199745059449831099609 (0x85FA142FEB7061D4AD80E00C3CF70CD9)
Полное имя : D:\Films\Edge.of.Tomorrow.2014.BDRip.720p.mkv
Формат : Matroska
Версия формата : Version 2
Размер файла : 5,77 Гбайт
Продолжительность : 1 ч. 53 м.
Общий поток : 7274 Кбит/сек
Дата кодирования : UTC 2014-09-17 03:28:07
Программа кодирования : mkvmerge v5.2.0 ('I can't explain') built on Dec 18 2011 18:12:03
Библиотека кодирования : libebml v1.2.3 + libmatroska v1.3.0
Видео
Идентификатор : 1
Формат : AVC
Формат/Информация : Advanced Video Codec
Профиль формата : [email protected]
Параметр CABAC формата : Да
Параметр ReFrames формата : 5 кадров
Идентификатор кодека : V_MPEG4/ISO/AVC
Продолжительность : 1 ч. 53 м.
Битрейт : 5379 Кбит/сек
Ширина : 1280 пикселей
Высота : 536 пикселей
Соотношение сторон : 2,40:1
Режим частоты кадров : Постоянный
Частота кадров : 23,976 кадра/сек
Цветовое пространство : YUV
Субдискретизация насыщенности : 4:2:0
Битовая глубина : 8 бит
Тип развёртки : Прогрессивная
Бит/(Пиксели*Кадры) : 0.327
Размер потока : 4,15 Гбайт (72%)
Библиотека кодирования : x264 core 142 r2453 ea0ca51
Настройки программы : cabac=1 / ref=5 / deblock=1:0:0 / analyse=0x3:0x133 / me=umh / subme=7 / psy=1 / psy_rd=1.00:0.00 / mixed_ref=1 / me_range=16 / chroma_me=1 / trellis=1 / 8x8dct=1 / cqm=0 / deadzone=21,11 / fast_pskip=0 / chroma_qp_offset=-2 / threads=18 / lookahead_threads=3 / sliced_threads=0 / nr=0 / decimate=1 / interlaced=0 / bluray_compat=0 / constrained_intra=0 / bframes=3 / b_pyramid=2 / b_adapt=1 / b_bias=0 / direct=1 / weightb=1 / open_gop=0 / weightp=2 / keyint=250 / keyint_min=23 / scenecut=40 / intra_refresh=0 / rc_lookahead=40 / rc=2pass / mbtree=1 / bitrate=5379 / ratetol=1.0 / qcomp=0.60 / qpmin=0 / qpmax=69 / qpstep=4 / cplxblur=20.0 / qblur=0.5 / ip_ratio=1.40 / aq=1:1.00
Язык : English
Default : Да
Forced : Нет
Аудио #1
Идентификатор : 2
Формат : AC-3
Формат/Информация : Audio Coding 3
Расширение режима : CM (complete main)
Параметр Endianness формата : Big
Идентификатор кодека : A_AC3
Продолжительность : 1 ч. 53 м.
Вид битрейта : Постоянный
Битрейт : 384 Кбит/сек
Каналы : 6 каналов
Расположение каналов : Front: L C R, Side: L R, LFE
Частота : 48,0 КГц
Битовая глубина : 16 бит
Метод сжатия : С потерями
Размер потока : 312 Мбайт (5%)
Заголовок : DUB, iTunes
Язык : Russian
Default : Да
Forced : Нет
Аудио #2
Идентификатор : 3
Формат : DTS
Формат/Информация : Digital Theater Systems
Режим : 16
Параметр Endianness формата : Big
Идентификатор кодека : A_DTS
Продолжительность : 1 ч. 53 м.
Вид битрейта : Постоянный
Битрейт : 1509 Кбит/сек
Каналы : 6 каналов
Расположение каналов : Front: L C R, Side: L R, LFE
Частота : 48,0 КГц
Битовая глубина : 24 бит
Метод сжатия : С потерями
Размер потока : 1,20 Гбайт (21%)
Язык : English
Default : Нет
Forced : Нет
Текст #1
Идентификатор : 4
Формат : UTF-8
Идентификатор кодека : S_TEXT/UTF8
Идентификатор кодека/Информация : UTF-8 Plain Text
Заголовок : Forced
Язык : Russian
Default : Да
Forced : Нет
Текст #2
Идентификатор : 5
Формат : UTF-8
Идентификатор кодека : S_TEXT/UTF8
Идентификатор кодека/Информация : UTF-8 Plain Text
Заголовок : iTunes
Язык : Russian
Default : Нет
Forced : Нет
Текст #3
Идентификатор : 6
Формат : UTF-8
Идентификатор кодека : S_TEXT/UTF8
Идентификатор кодека/Информация : UTF-8 Plain Text
Заголовок : iTunes
Язык : Ukrainian
Default : Нет
Forced : Нет
Текст #4
Идентификатор : 7
Формат : UTF-8
Идентификатор кодека : S_TEXT/UTF8
Идентификатор кодека/Информация : UTF-8 Plain Text
Язык : English
Default : Нет
Forced : Нет
Меню
00:00:00.000 : en:00:00:00.000
00:10:28.169 : en:00:10:28.169
00:17:39.100 : en:00:17:39.100
00:24:50.197 : en:00:24:50.197
00:35:57.947 : en:00:35:57.947
00:46:27.284 : en:00:46:27.284
00:54:34.771 : en:00:54:34.771
01:04:59.562 : en:01:04:59.562
01:12:53.077 : en:01:12:53.077
01:23:08.901 : en:01:23:08.901
01:32:34.132 : en:01:32:34.132
01:42:53.584 : en:01:42:53.584
01:45:46.215 : en:01:45:46.215
-Скриншоты:
-Время раздачи: С 8:00 до 22:00 до 5 скачавших

[Цитировать]



Показать сообщения:    

Текущее время: 04-Дек 21:28

Часовой пояс: UTC + 3


Вы не можете начинать темы
Вы не можете отвечать на сообщения
Вы не можете редактировать свои сообщения
Вы не можете удалять свои сообщения
Вы не можете голосовать в опросах
Вы не можете прикреплять файлы к сообщениям
Вы не можете скачивать файлы

!ВНИМАНИЕ!
Сайт не предоставляет электронные версии произведений, а занимается лишь коллекционированием и каталогизацией ссылок, присылаемых и публикуемых на форуме нашими читателями. Если вы являетесь правообладателем какого-либо представленного материала и не желаете, чтобы ссылка на него находилась в нашем каталоге, свяжитесь с нами, и мы незамедлительно удалим ее. Файлы для обмена на трекере предоставлены пользователями сайта, и администрация не несет ответственности за их содержание. Просьба не заливать файлы, защищенные авторскими правами, а также файлы нелегального содержания!