[ Сегодня идет свободное скачивание без начисления Download ]


Статистика раздачи
Нет
 
   
 
Top  
 
 
-Малефисента / Maleficent (2014) BDRip 3D
«Не верьте сказкам»
- Год выпуска: 2014
Производство: США, Великобритания / Walt Disney Pictures
Жанр: Фэнтези, приключения, семейный, мелодрама
Описание фильма:
Юная волшебница Малефисента вела уединенную жизнь в зачарованном лесу, окруженная сказочными существами, но однажды все изменилось… В её мир вторглись люди, которые принесли с собой разрушение и хаос, и Малефисенте пришлось встать на защиту своих подданных, призвав на помощь могущественные тёмные силы. В пылу борьбы Малефисента наложила страшное заклятие на новорожденную дочь короля, прекрасную Аврору. Но, наблюдая за тем, как растет маленькая принцесса, Малефисента начинает сомневаться в правильности своего поступка — ведь, возможно, именно Аврора может вдохнуть новую жизнь в волшебное лесное царство.
Режиссер: Роберт Стромберг / Robert Stromberg
Продюсер: Джо Рот, Сара Брэдшоу, Дон Хан
Актеры: Анджелина Джоли, Эль Фаннинг, Шарлто Копли, Лесли Мэнвилл, Имелда Стонтон, Джуно Темпл, Сэм Райли, Брентон Туэйтс, Кеннет Крэнэм, Сара Флинд
Язык: Русский, украинский, английский
Перевод: Дублированный [лицензия]
Вид субтитров: Вшитые отключаемые
Язык субтитров: Русский, английский (full, SDH)

Дата мировой премьеры: 28 мая 2014
Дата российской премьеры: 29 мая 2014, «WDSSPR»
Дата выхода DVD релиза: 23 сентября 2014, «Уолт Дисней Компани СНГ»
Дата выхода Blu-ray релиза: 23 сентября 2014, «Уолт Дисней Компани СНГ»
Рейтинг MPAA: PG
Возраст: 12+
Продолжительность: 01:37:28
Качество видео: BDRip 3D
Видео: MPEG-4 AVC/H.264, 1920x1080, ~7849 kbps, 23.976 fps
Аудио 1: AC3 5.1, 640 kbps, 48 kHz, 16-bit [Русский - дублированный «Blu-ray EUR»]
Аудио 2: DTS 5.1, 1536 kbps, 48 kHz, 24-bit [Украинский - дублированный]
Аудио 3: DTS 5.1, 1536 kbps, 48 kHz, 24-bit [Английский - оригинал]

Отчёт MediaInfo

Полное имя : D:\Малефисента-Maleficent.(2014).BDRip.[1080p].3D.mkv
Формат : Matroska
Версия формата : Version 2
Размер файла : 7,99 Гбайт
Продолжительность : 1 ч. 37 м.
Общий поток : 11,7 Мбит/сек
Название фильма : Maleficent (2014) 3D
Дата кодирования : UTC 2014-09-14 11:42:13
Программа кодирования : mkvmerge v5.7.0 ('The Whirlwind') built on Aug 7 2012 14:11:40
Библиотека кодирования : libebml v1.2.3 + libmatroska v1.3.0
Attachment : Yes
Видео
Идентификатор : 1
Формат : AVC
Формат/Информация : Advanced Video Codec
Профиль формата : High@L4.1
Параметр CABAC формата : Да
Параметр ReFrames формата : 4 кадра
Идентификатор кодека : V_MPEG4/ISO/AVC
Битрейт : 7849 Кбит/сек
Ширина : 1920 пикселей
Высота : 1080 пикселей
Соотношение сторон : 16:9
Режим частоты кадров : Переменный
Частота кадров в оригинале : 23,976 кадра/сек
Цветовое пространство : YUV
Субдискретизация насыщенности : 4:2:0
Битовая глубина : 8 бит
Тип развёртки : Прогрессивная
Заголовок : Малефисента-Maleficent.(2014).BDRip.[1080p].3D
Библиотека кодирования : x264 core 130 r2273 b3065e6
Настройки программы : cabac=1 / ref=4 / deblock=1:-3:-3 / analyse=0x3:0x133 / me=umh / subme=10 / psy=1 / psy_rd=1.00:0.15 / mixed_ref=1 / me_range=32 / chroma_me=1 / trellis=2 / 8x8dct=1 / cqm=0 / deadzone=21,11 / fast_pskip=0 / chroma_qp_offset=-3 / threads=12 / lookahead_threads=2 / sliced_threads=0 / nr=0 / decimate=1 / interlaced=0 / bluray_compat=0 / constrained_intra=0 / bframes=8 / b_pyramid=2 / b_adapt=2 / b_bias=0 / direct=3 / weightb=1 / open_gop=0 / weightp=2 / keyint=250 / keyint_min=23 / scenecut=40 / intra_refresh=0 / rc_lookahead=60 / rc=crf / mbtree=1 / crf=16.5 / qcomp=0.60 / qpmin=0 / qpmax=69 / qpstep=4 / vbv_maxrate=50000 / vbv_bufsize=62500 / crf_max=0.0 / nal_hrd=none / ip_ratio=1.40 / aq=1:0.90
Язык : English
Default : Да
Forced : Нет
Аудио #1
Идентификатор : 2
Формат : AC-3
Формат/Информация : Audio Coding 3
Расширение режима : CM (complete main)
Параметр Endianness формата : Big
Идентификатор кодека : A_AC3
Продолжительность : 1 ч. 37 м.
Вид битрейта : Постоянный
Битрейт : 640 Кбит/сек
Каналы : 6 каналов
Расположение каналов : Front: L C R, Side: L R, LFE
Частота : 48,0 КГц
Битовая глубина : 16 бит
Метод сжатия : С потерями
Размер потока : 446 Мбайт (5%)
Заголовок : AC3 5.1 / 640 Kbps / Dub (Blu-ray EUR)
Язык : Russian
Default : Да
Forced : Нет
Аудио #2
Идентификатор : 3
Формат : DTS
Формат/Информация : Digital Theater Systems
Идентификатор кодека : A_DTS
Продолжительность : 1 ч. 37 м.
Вид битрейта : Постоянный
Битрейт : 1510 Кбит/сек
Каналы : 6 каналов
Расположение каналов : Front: L C R, Side: L R, LFE
Частота : 48,0 КГц
Битовая глубина : 24 бит
Метод сжатия : С потерями
Размер потока : 1,03 Гбайт (13%)
Заголовок : DTS 5.1 / 1536 kbps / Dub
Язык : Ukrainian
Default : Нет
Forced : Нет
Аудио #3
Идентификатор : 4
Формат : DTS
Формат/Информация : Digital Theater Systems
Идентификатор кодека : A_DTS
Продолжительность : 1 ч. 37 м.
Вид битрейта : Постоянный
Битрейт : 1510 Кбит/сек
Каналы : 6 каналов
Расположение каналов : Front: L C R, Side: L R, LFE
Частота : 48,0 КГц
Битовая глубина : 24 бит
Метод сжатия : С потерями
Размер потока : 1,03 Гбайт (13%)
Заголовок : DTS 5.1 / 1536 kbps / Original
Язык : English
Default : Нет
Forced : Нет
Текст #1
Идентификатор : 5
Формат : UTF-8
Идентификатор кодека : S_TEXT/UTF8
Идентификатор кодека/Информация : UTF-8 Plain Text
Заголовок : Full
Язык : Russian
Default : Нет
Forced : Нет
Текст #2
Идентификатор : 6
Формат : UTF-8
Идентификатор кодека : S_TEXT/UTF8
Идентификатор кодека/Информация : UTF-8 Plain Text
Заголовок : Full
Язык : English
Default : Нет
Forced : Нет
Текст #3
Идентификатор : 7
Формат : UTF-8
Идентификатор кодека : S_TEXT/UTF8
Идентификатор кодека/Информация : UTF-8 Plain Text
Заголовок : SDH
Язык : English
Default : Нет
Forced : Нет
Меню
00:00:00.000 : en:00:00:00.000
00:03:00.597 : en:00:03:00.597
00:08:10.949 : en:00:08:10.949
00:14:00.757 : en:00:14:00.757
00:19:10.608 : en:00:19:10.608
00:25:59.057 : en:00:25:59.057
00:33:09.738 : en:00:33:09.738
00:38:30.808 : en:00:38:30.808
00:43:21.140 : en:00:43:21.140
00:46:56.105 : en:00:46:56.105
00:51:11.944 : en:00:51:11.944
00:54:18.797 : en:00:54:18.797
00:58:37.723 : en:00:58:37.723
01:01:58.048 : en:01:01:58.048
01:05:09.989 : en:01:05:09.989
01:09:56.776 : en:01:09:56.776
01:15:40.619 : en:01:15:40.619
01:17:43.659 : en:01:17:43.659
01:25:44.931 : en:01:25:44.931
01:28:38.647 : en:01:28:38.647
Скриншоты:

Время раздачи: 24/7 (до 10 скачавших)

[Цитировать]



Показать сообщения:    

Текущее время: 25-Фев 12:12

Часовой пояс: UTC + 3


Вы не можете начинать темы
Вы не можете отвечать на сообщения
Вы не можете редактировать свои сообщения
Вы не можете удалять свои сообщения
Вы не можете голосовать в опросах
Вы не можете прикреплять файлы к сообщениям
Вы не можете скачивать файлы

!ВНИМАНИЕ!
Сайт не предоставляет электронные версии произведений, а занимается лишь коллекционированием и каталогизацией ссылок, присылаемых и публикуемых на форуме нашими читателями. Если вы являетесь правообладателем какого-либо представленного материала и не желаете, чтобы ссылка на него находилась в нашем каталоге, свяжитесь с нами, и мы незамедлительно удалим ее. Файлы для обмена на трекере предоставлены пользователями сайта, и администрация не несет ответственности за их содержание. Просьба не заливать файлы, защищенные авторскими правами, а также файлы нелегального содержания!