[ Сегодня идет свободное скачивание без начисления Download ]


Статистика раздачи
Нет
 
   
 
Top  
 
 
-Люди Икс: Дни минувшего будущего / X-Men: Days of Future Past (2014) WEB-DLRip- Год выпуска: 2014
Производство: США, Великобритания
Жанр: Фантастика, фэнтези, боевик, приключения
Режиссер: Брайан Сингер
Продюсер: Саймон Кинберг, Хатч Паркер, Лорен Шулер Доннер
Актеры: Хью Джекман, Иэн МакКеллен, Патрик Стюарт, Холли Берри, Майкл Фассбендер, Джеймс МакЭвой, Анна Пакуин, Эллен Пейдж, Шон Эшмор, Дженнифер Лоуренс, Николас Холт, Питер Динклэйдж, Омар Си, Бинбин Фань
Описание фильма:
На мутантов начинается охота с помощью самых современных технологий и применения роботов-убийц. Чтобы спасти своё будущее, главные герои вынуждены вернуться в прошлое, в семидесятые годы, когда политическое убийство развязало войну между людьми и мутантами-икс.
Перевод: Дублированный
Субтитры: Отсутствуют

Дата мировой премьеры: 10 мая 2014
Дата российской премьеры: 22 мая 2014
Дата выхода DVD релиза: 2 октября 2014
Дата выхода Blu-Rayрелиза: 2 октября 2014
Продолжительность: 02:11:36
Качество видео: WEB-DLRip
Видеокодек: XviD
Битрейт видео: ~1096 Кбит/с
Размер кадра: 720x304
Аудиокодек: AC3 5.1
Битрейт аудио: 384 Кбит/с

MediaInfo:

Общее
Полное имя : C:\NNM\Люди Икс\Ludi X 2014 HDRip.avi
Формат : AVI
Формат/Информация : Audio Video Interleave
Размер файла : 1,37 Гбайт
Продолжительность : 2 ч. 11 м.
Общий поток : 1489 Кбит/сек
Программа кодирования : VirtualDubMod 1.5.10.2 (build 2540/release)
Библиотека кодирования : VirtualDubMod build 2540/release
Видео
Идентификатор : 0
Формат : MPEG-4 Visual
Профиль формата : Advanced Simple@L5
Параметр BVOP формата : 2
Параметр QPel формата : Нет
Параметр GMC формата : Без точки перехода
Параметр матрицы формата : Default (MPEG)
Идентификатор кодека : XVID
Идентификатор кодека/Подсказка : XviD
Продолжительность : 2 ч. 11 м.
Битрейт : 1096 Кбит/сек
Ширина : 720 пикселей
Высота : 304 пикселя
Соотношение сторон : 2,35:1
Частота кадров : 23,976 кадра/сек
Цветовое пространство : YUV
Субдискретизация насыщенности : 4:2:0
Битовая глубина : 8 бит
Тип развёртки : Прогрессивная
Метод сжатия : С потерями
Бит/(Пиксели*Кадры) : 0.209
Размер потока : 1,01 Гбайт (74%)
Библиотека кодирования : XviD 1.2.1 (UTC 2008-12-04)
Аудио
Идентификатор : 1
Формат : AC-3
Формат/Информация : Audio Coding 3
Расширение режима : CM (complete main)
Идентификатор кодека : 2000
Продолжительность : 2 ч. 11 м.
Вид битрейта : Постоянный
Битрейт : 384 Кбит/сек
Каналы : 6 каналов
Расположение каналов : Front: L C R, Side: L R, LFE
Частота : 48,0 КГц
Битовая глубина : 16 бит
Метод сжатия : С потерями
Размер потока : 361 Мбайт (26%)
Выравнивание : Разделение по промежуткам
Продолжительность промежутка : 42 мс. (1,00 видеокадр)
Время предзагрузки промежутка : 500 мс.
Скриншоты:

Время раздачи: Круглосуточно до 10 скачавших

[Цитировать]

Топик был перенесен из форума Новинки кинопроката в форум Боевик
Henkok



Показать сообщения:    

Текущее время: 08-Дек 09:06

Часовой пояс: UTC + 3


Вы не можете начинать темы
Вы не можете отвечать на сообщения
Вы не можете редактировать свои сообщения
Вы не можете удалять свои сообщения
Вы не можете голосовать в опросах
Вы не можете прикреплять файлы к сообщениям
Вы не можете скачивать файлы

!ВНИМАНИЕ!
Сайт не предоставляет электронные версии произведений, а занимается лишь коллекционированием и каталогизацией ссылок, присылаемых и публикуемых на форуме нашими читателями. Если вы являетесь правообладателем какого-либо представленного материала и не желаете, чтобы ссылка на него находилась в нашем каталоге, свяжитесь с нами, и мы незамедлительно удалим ее. Файлы для обмена на трекере предоставлены пользователями сайта, и администрация не несет ответственности за их содержание. Просьба не заливать файлы, защищенные авторскими правами, а также файлы нелегального содержания!