[ Сегодня идет свободное скачивание без начисления Download ]


Статистика раздачи
Нет
 
   
 
Top  
 
 
-Джейми Маркс мёртв / Jamie Marks Is Dead (2014) WEB-DLRip- Год выпуска: 2014
Производство: США / Verisimilitude
Жанр: Драма
Описание фильма:
Зимой в небольшом городке на берегу реки находят тело юного Джейми Маркса. Адам МакКормик, пятнадцатилетний школьник, звезда местной команды по бегу, неожиданно очаровывается Джейми, мальчиком, которого толком даже никто не знал и с кем почти никто не общался.
Когда призрак Джейми начинает являться Адаму и Грейси, однокласснице, обнаружившей тело, Адам оказывается словно между двух миров.
Режиссер: Картер Смит
Продюсер: Омри Безалель, Хантер Грэй, Джейкоб Джаффке, ...
Актеры: Джуди Грир, Лив Тайлер, Кэмерон Монахэн, Морган Сэйлор, Ной Сильвер, Ронен Рубеинштейн, Мэдисен Бити, Эрин Вильхельми, Бретт ДельБуоно, Лиззи ДеКлемент
Перевод: Одноголосый закадровый, любительский
Озвучка / Автор перевода: Andi
Субтитры: Отсутствуют

Дата мировой премьеры: 19 января 2014
Продолжительность: 01:41:29
Качество видео: WEB-DLRip
Видеокодек: MPEG-4 AVC/H.264
Битрейт видео: ~1100 kb/s
Размер кадра: [email protected]
Аудио #1: Dolby AC3, 48.0 kHz, 6 chn [Russian, Andi (по переводу М. Васильева)]
Аудио #2: Dolby AC3, 48.0 kHz, 6 chn [English, Original]
Сэмпл: Скачать

MediaInfo:

Общее
Уникальный идентификатор : 246763535344671990907833172291185419042 (0xB9A4ED9DE16C78FA8D2F30E851DA2322)
Полное имя : Jamie.Marks.Is.Dead.2014.WEBDLRip.mkv
Формат : Matroska
Версия формата : Version 2
Размер файла : 1,41 Гбайт
Продолжительность : 1 ч. 41 м.
Общий поток : 1995 Кбит/сек
Дата кодирования : UTC 2014-09-18 15:08:53
Программа кодирования : mkvmerge v5.4.0 ('Piper') built on Mar 10 2012 13:34:39
Библиотека кодирования : libebml v1.2.3 + libmatroska v1.3.0
Видео
Идентификатор : 1
Формат : AVC
Формат/Информация : Advanced Video Codec
Профиль формата : [email protected]
Параметр CABAC формата : Да
Параметр ReFrames формата : 5 кадров
Режим смешивания : Header stripping
Идентификатор кодека : V_MPEG4/ISO/AVC
Продолжительность : 1 ч. 41 м.
Битрейт : 1100 Кбит/сек
Ширина : 720 пикселей
Высота : 304 пикселя
Соотношение сторон : 2,40:1
Режим частоты кадров : Постоянный
Частота кадров : 23,976 кадра/сек
Цветовое пространство : YUV
Субдискретизация насыщенности : 4:2:0
Битовая глубина : 8 бит
Тип развёртки : Прогрессивная
Бит/(Пиксели*Кадры) : 0.210
Размер потока : 769 Мбайт (53%)
Библиотека кодирования : x264 core 142 r2438 af8e768
Настройки программы : cabac=1 / ref=5 / deblock=1:-2:-2 / analyse=0x3:0x113 / me=umh / subme=8 / psy=1 / psy_rd=0.90:0.00 / mixed_ref=1 / me_range=16 / chroma_me=1 / trellis=1 / 8x8dct=1 / cqm=0 / deadzone=21,11 / fast_pskip=1 / chroma_qp_offset=-2 / threads=8 / lookahead_threads=2 / sliced_threads=0 / nr=0 / decimate=1 / interlaced=0 / bluray_compat=0 / constrained_intra=0 / bframes=3 / b_pyramid=2 / b_adapt=2 / b_bias=0 / direct=3 / weightb=1 / open_gop=0 / weightp=2 / keyint=250 / keyint_min=25 / scenecut=40 / intra_refresh=0 / rc_lookahead=50 / rc=abr / mbtree=1 / bitrate=1100 / ratetol=1.0 / qcomp=0.60 / qpmin=0 / qpmax=69 / qpstep=4 / vbv_maxrate=31250 / vbv_bufsize=31250 / nal_hrd=none / filler=0 / ip_ratio=1.40 / aq=1:1.00
Язык : English
Default : Да
Forced : Нет
Аудио #1
Идентификатор : 2
Формат : AC-3
Формат/Информация : Audio Coding 3
Расширение режима : CM (complete main)
Параметр Endianness формата : Big
Режим смешивания : Header stripping
Идентификатор кодека : A_AC3
Продолжительность : 1 ч. 41 м.
Вид битрейта : Постоянный
Битрейт : 448 Кбит/сек
Каналы : 6 каналов
Расположение каналов : Front: L C R, Side: L R, LFE
Частота : 48,0 КГц
Битовая глубина : 16 бит
Метод сжатия : С потерями
Задержка видео : -43 мс.
Размер потока : 325 Мбайт (22%)
Заголовок : Andi (по переводу М. Васильева)
Язык : Russian
Default : Да
Forced : Нет
Аудио #2
Идентификатор : 3
Формат : AC-3
Формат/Информация : Audio Coding 3
Расширение режима : CM (complete main)
Параметр Endianness формата : Big
Режим смешивания : Header stripping
Идентификатор кодека : A_AC3
Продолжительность : 1 ч. 41 м.
Вид битрейта : Постоянный
Битрейт : 448 Кбит/сек
Каналы : 6 каналов
Расположение каналов : Front: L C R, Side: L R, LFE
Частота : 48,0 КГц
Битовая глубина : 16 бит
Метод сжатия : С потерями
Задержка видео : -43 мс.
Размер потока : 325 Мбайт (22%)
Заголовок : Original
Язык : English
Default : Нет
Forced : Нет
Скриншоты:

Время раздачи: с 09:00 до 23:30

[Цитировать]



Показать сообщения:    

Текущее время: 06-Дек 03:56

Часовой пояс: UTC + 3


Вы не можете начинать темы
Вы не можете отвечать на сообщения
Вы не можете редактировать свои сообщения
Вы не можете удалять свои сообщения
Вы не можете голосовать в опросах
Вы не можете прикреплять файлы к сообщениям
Вы не можете скачивать файлы

!ВНИМАНИЕ!
Сайт не предоставляет электронные версии произведений, а занимается лишь коллекционированием и каталогизацией ссылок, присылаемых и публикуемых на форуме нашими читателями. Если вы являетесь правообладателем какого-либо представленного материала и не желаете, чтобы ссылка на него находилась в нашем каталоге, свяжитесь с нами, и мы незамедлительно удалим ее. Файлы для обмена на трекере предоставлены пользователями сайта, и администрация не несет ответственности за их содержание. Просьба не заливать файлы, защищенные авторскими правами, а также файлы нелегального содержания!