[ Сегодня идет свободное скачивание без начисления Download ]


Статистика раздачи
Нет
 
   
 
Top  
 
 
-Рука на миллион / Million Dollar Arm (2014) BDRip- Год выпуска: 2014
Производство: США - Walt Disney Pictures
Жанр: Драма, спорт, биография
Перевод: Дублированный |Line|
Субтитры: Вшитые отключаемые
Язык субтитров: Английский
Дата мировой премьеры: 18 сентября 2014
Дата выхода DVD релиза: 30 сентября 2014
Режиссер: Крэйг Гиллеспи
Актеры: Джон Хэмм, Питобаш Трипати, Сурадж Шарма, Мадхур Миттал, Аасиф Мандви, Даршан Джаривала, Лэйк Белл, Алан Аркин, Билл Пэкстон, Грегори Алан Уильямс
Описание фильма:
Спортивный агент использует нетрадиционные способы найма, чтобы переманить талантливых азиатских игроков в крикет в Высшую лигу бейсбола.

Продолжительность: 02:04:14
Качество видео: BDRip 1080p - profile LQ
Видеокодек: MPEG-4 AVC/H.264
Видео: H264, 8574 Кбит/с, 1920x808, 23.976 кадр/с
Аудио #1: Русский: AC3, 2.0, 192 Кбит/с, 48kHz, 16 bit
Аудио #2: Английский: DTS, 5.1, 1536 Кбит/с, 48 kHz, 24 bit
*) в фильме есть места где звучит только индийская речь - без перевода и субтитров
Сохранены оригинальные чаптеры как на Blu-Ray

MediaInfo:

Общее
Уникальный идентификатор : 187740413585377978576630898827588021369 (0x8D3D7D09B86FB70897A35AEABCD82C79)
Полное имя : D:\Video\Million.Dollar.Arm.2014.D.BDRip.1080p.mkv
Формат : Matroska
Версия формата : Version 2
Размер файла : 8,91 Гбайт
Продолжительность : 2 ч. 4 м.
Общий поток : 10,3 Мбит/сек
Дата кодирования : UTC 2014-09-17 23:33:47
Программа кодирования : mkvmerge v7.1.0 ('Good Love') 64bit built on Jul 27 2014 13:06:55
Библиотека кодирования : libebml v1.3.0 + libmatroska v1.4.1
Видео
Идентификатор : 1
Формат : AVC
Формат/Информация : Advanced Video Codec
Профиль формата : High@L4.1
Параметр CABAC формата : Да
Параметр ReFrames формата : 5 кадров
Идентификатор кодека : V_MPEG4/ISO/AVC
Продолжительность : 2 ч. 4 м.
Битрейт : 8574 Кбит/сек
Ширина : 1920 пикселей
Высота : 808 пикселей
Соотношение сторон : 2,40:1
Частота кадров : 23,976 кадра/сек
Цветовое пространство : YUV
Субдискретизация насыщенности : 4:2:0
Битовая глубина : 8 бит
Тип развёртки : Прогрессивная
Бит/(Пиксели*Кадры) : 0.231
Размер потока : 7,26 Гбайт (81%)
Библиотека кодирования : x264 core 142 r2479 dd79a61
Настройки программы : cabac=1 / ref=5 / deblock=1:0:0 / analyse=0x3:0x133 / me=umh / subme=7 / psy=1 / psy_rd=1.00:0.00 / mixed_ref=1 / me_range=16 / chroma_me=1 / trellis=1 / 8x8dct=1 / cqm=0 / deadzone=21,11 / fast_pskip=0 / chroma_qp_offset=-2 / threads=18 / lookahead_threads=3 / sliced_threads=0 / nr=0 / decimate=1 / interlaced=0 / bluray_compat=0 / constrained_intra=0 / bframes=3 / b_pyramid=2 / b_adapt=1 / b_bias=0 / direct=1 / weightb=1 / open_gop=0 / weightp=2 / keyint=250 / keyint_min=23 / scenecut=40 / intra_refresh=0 / rc_lookahead=40 / rc=2pass / mbtree=1 / bitrate=8574 / ratetol=1.0 / qcomp=0.60 / qpmin=0 / qpmax=69 / qpstep=4 / cplxblur=20.0 / qblur=0.5 / ip_ratio=1.40 / aq=1:1.00
Язык : English
Default : Да
Forced : Нет
Аудио #1
Идентификатор : 2
Формат : AC-3
Формат/Информация : Audio Coding 3
Расширение режима : CM (complete main)
Идентификатор кодека : A_AC3
Продолжительность : 2 ч. 4 м.
Вид битрейта : Постоянный
Битрейт : 192 Кбит/сек
Каналы : 2 канала
Расположение каналов : Front: L R
Частота : 48,0 КГц
Битовая глубина : 16 бит
Метод сжатия : С потерями
Размер потока : 171 Мбайт (2%)
Язык : Russian
Default : Да
Forced : Нет
Аудио #2
Идентификатор : 3
Формат : DTS
Формат/Информация : Digital Theater Systems
Идентификатор кодека : A_DTS
Продолжительность : 2 ч. 4 м.
Вид битрейта : Постоянный
Битрейт : 1510 Кбит/сек
Каналы : 6 каналов
Расположение каналов : Front: L C R, Side: L R, LFE
Частота : 48,0 КГц
Битовая глубина : 24 бит
Метод сжатия : С потерями
Размер потока : 1,31 Гбайт (15%)
Язык : English
Default : Нет
Forced : Нет
Текст
Идентификатор : 4
Формат : UTF-8
Идентификатор кодека : S_TEXT/UTF8
Идентификатор кодека/Информация : UTF-8 Plain Text
Заголовок : English-Forced
Язык : English
Default : Нет
Forced : Нет
Меню
00:00:00.000 : en:00:00:00.000
00:04:32.063 : en:00:04:32.063
00:09:26.441 : en:00:09:26.441
00:15:31.973 : en:00:15:31.973
00:24:40.479 : en:00:24:40.479
00:33:24.085 : en:00:33:24.085
00:39:43.590 : en:00:39:43.590
00:45:25.598 : en:00:45:25.598
00:50:57.846 : en:00:50:57.846
00:59:58.887 : en:00:59:58.887
01:05:38.601 : en:01:05:38.601
01:14:49.694 : en:01:14:49.694
01:24:14.633 : en:01:24:14.633
01:28:34.434 : en:01:28:34.434
01:35:16.044 : en:01:35:16.044
01:43:13.062 : en:01:43:13.062
01:47:55.678 : en:01:47:55.678
01:55:12.114 : en:01:55:12.114
Скриншоты:


Время раздачи: с 10:00 до 20:00 (GMT+2) - до 10 скачавшихНе забываем говорить

[Цитировать]

Топик был перенесен из форума Новинки кинопроката 2016 (HD Video) в форум Архив
D-r Woland_kz



Показать сообщения:    

Текущее время: 27-Май 16:02

Часовой пояс: UTC + 6


Вы не можете начинать темы
Вы не можете отвечать на сообщения
Вы не можете редактировать свои сообщения
Вы не можете удалять свои сообщения
Вы не можете голосовать в опросах
Вы не можете прикреплять файлы к сообщениям
Вы не можете скачивать файлы

!ВНИМАНИЕ!
Сайт не предоставляет электронные версии произведений, а занимается лишь коллекционированием и каталогизацией ссылок, присылаемых и публикуемых на форуме нашими читателями. Если вы являетесь правообладателем какого-либо представленного материала и не желаете, чтобы ссылка на него находилась в нашем каталоге, свяжитесь с нами, и мы незамедлительно удалим ее. Файлы для обмена на трекере предоставлены пользователями сайта, и администрация не несет ответственности за их содержание. Просьба не заливать файлы, защищенные авторскими правами, а также файлы нелегального содержания!