[ Сегодня идет свободное скачивание без начисления Download ]


Статистика раздачи
Нет
 
   
 
Top  
 
 
-Грань будущего / Edge of Tomorrow (2014) BDRip«Живи. Умри. И снова»- Год выпуска: 2014
Производство: США, Австралия / Warner Bros., Village Roadshow Pictures
Жанр: Фантастика, боевик
Описание фильма:
В недалёком будущем раса инопланетян вторгается на Землю. Никакая армия в мире не может противостоять им. Майор Уильям Кейдж умирает в бою, но случается невозможное — он оказывается во временной петле. Раз за разом он попадает в один и тот же бой, сражается и умирает… снова и снова. И каждое повторяющееся сражение приближает его к разгадке того, как победить врага.
Режиссер: Даг Лайман
Продюсер: Джейсон Хоффс, Грегори Джейкобс, Том Лассалли
Актеры: Том Круз, Эмили Блант, Брендан Глисон, Билл Пэкстон, Джонас Армстронг, Тони Вэй, Кик Гарри, Франц Драмех, Драгомир Мрсич, Шарлотта Райли
Перевод: Дублированный (iTunes)
Субтитры: Отсутствуют

Рейтинг MPAA: PG-13
Возраст: 12+
Дата мировой премьеры: 28 мая 2014
Дата российской премьеры: 5 июня 2014, «Каро-Премьер»
Дата выхода DVD релиза: 2 октября 2014, «CP Дистрибуция»
Дата выхода BLU-RAY релиза: 2 октября 2014, «CP Дистрибуция»
Продолжительность: 01:53:28
Качество видео: BDRip
Видеокодек: MPEG-4 AVC/H.264
Битрейт видео: ~13,8 Мбит/сек
Размер кадра: 1920x1080
Аудио 1: AC3 5.1, 384 kbps [Русский]
Аудио 2: AC3 5.1, 640 kbps [Английский]

Media info:

Общее
Уникальный идентификатор : 213404762700987058181211713565260886976 (0xA08C4324863FFCCDAE0CA2481075B3C0)
Полное имя : F:\my films\EDGE_OF_TOMORROW_3D.mkv
Формат : Matroska
Версия формата : Version 2
Размер файла : 12,0 Гбайт
Продолжительность : 1 ч. 53 м.
Общий поток : 15,1 Мбит/сек
Название фильма : EDGE_OF_TOMORROW_3D_Crop_O/U
Дата кодирования : UTC 2014-09-20 16:39:48
Программа кодирования : mkvmerge v5.7.0 ('The Whirlwind') built on Aug 7 2012 14:11:40
Библиотека кодирования : libebml v1.2.3 + libmatroska v1.3.0
Видео
Идентификатор : 1
Формат : AVC
Формат/Информация : Advanced Video Codec
Профиль формата : High@L4.1
Параметр CABAC формата : Да
Параметр ReFrames формата : 4 кадра
Идентификатор кодека : V_MPEG4/ISO/AVC
Продолжительность : 1 ч. 53 м.
Битрейт : 13,8 Мбит/сек
Ширина : 1920 пикселей
Высота : 1080 пикселей
Соотношение сторон : 16:9
Режим частоты кадров : Постоянный
Частота кадров : 23,976 кадра/сек
Цветовое пространство : YUV
Субдискретизация насыщенности : 4:2:0
Битовая глубина : 8 бит
Тип развёртки : Прогрессивная
Бит/(Пиксели*Кадры) : 0.278
Размер потока : 10,9 Гбайт (91%)
Заголовок : rip by I/N
Библиотека кодирования : x264 core 128 r2216M 198a7ea
Настройки программы : cabac=1 / ref=4 / deblock=1:-3:-3 / analyse=0x3:0x133 / me=umh / subme=10 / psy=1 / psy_rd=1.00:0.15 / mixed_ref=1 / me_range=32 / chroma_me=1 / trellis=2 / 8x8dct=1 / cqm=0 / deadzone=0,0 / fast_pskip=0 / chroma_qp_offset=-3 / threads=8 / lookahead_threads=1 / sliced_threads=0 / nr=0 / decimate=1 / interlaced=0 / bluray_compat=0 / constrained_intra=0 / bframes=6 / b_pyramid=2 / b_adapt=2 / b_bias=0 / direct=3 / weightb=1 / open_gop=0 / weightp=2 / keyint=230 / keyint_min=23 / scenecut=40 / intra_refresh=0 / rc_lookahead=60 / rc=crf / mbtree=1 / crf=17.0 / qcomp=0.60 / qpmin=0 / qpmax=69 / qpstep=4 / vbv_maxrate=40000 / vbv_bufsize=30000 / crf_max=30.0 / nal_hrd=none / ip_ratio=1.40 / aq=2:1.00
Default : Да
Forced : Нет
Аудио #1
Идентификатор : 2
Формат : AC-3
Формат/Информация : Audio Coding 3
Расширение режима : CM (complete main)
Параметр Endianness формата : Big
Идентификатор кодека : A_AC3
Продолжительность : 1 ч. 53 м.
Вид битрейта : Постоянный
Битрейт : 384 Кбит/сек
Каналы : 6 каналов
Расположение каналов : Front: L C R, Side: L R, LFE
Частота : 48,0 КГц
Битовая глубина : 16 бит
Метод сжатия : С потерями
Размер потока : 312 Мбайт (3%)
Заголовок : Дубляж (iTunes)
Язык : Russian
Default : Да
Forced : Нет
Аудио #2
Идентификатор : 3
Формат : AC-3
Формат/Информация : Audio Coding 3
Расширение режима : CM (complete main)
Параметр Endianness формата : Big
Идентификатор кодека : A_AC3
Продолжительность : 1 ч. 53 м.
Вид битрейта : Постоянный
Битрейт : 640 Кбит/сек
Каналы : 6 каналов
Расположение каналов : Front: L C R, Side: L R, LFE
Частота : 48,0 КГц
Битовая глубина : 16 бит
Метод сжатия : С потерями
Размер потока : 519 Мбайт (4%)
Заголовок : Original
Язык : English
Default : Нет
Forced : Нет
Меню
00:00:00.000 : en:(01)00:00:00:000
00:10:28.169 : en:(02)00:10:28:169
00:17:39.099 : en:(03)00:17:39:099
00:24:50.197 : en:(04)00:24:50:197
00:35:57.947 : en:(05)00:35:57:947
00:46:27.284 : en:(06)00:46:27:284
00:54:34.771 : en:(07)00:54:34:771
01:04:59.562 : en:(08)01:04:59:562
01:12:53.077 : en:(09)01:12:53:077
01:23:08.900 : en:(10)01:23:08:900
01:32:34.131 : en:(11)01:32:34:131
01:42:53.584 : en:(12)01:42:53:584
01:45:46.214 : en:(13)01:45:46:214
01:53:29.177 : en:(14)01:53:29:177

Особенности релиза:

Справа и слева у видеоряда обрезано по 248р, что дает возможность просмотра на полный экран (без черных полос) на телевизорах с соотношением сторон 16:9 без изменения пропорций. На мой взгляд плюсы данных рипов- это более глубокое восприятие 3D-эффектов (конечно там где они есть) К минусам отнесу- вынужденное обрезание кадра по бокам. Так-что господа- выбор за вами!
Всем приятного просмотра!
Проверено на встроенном плейере ТВ Samsung-D6500Скриншоты:
Время раздачи: 24/7 - круглосуточно до 10 скачавших

[Цитировать]



Показать сообщения:    

Текущее время: 09-Дек 08:46

Часовой пояс: UTC + 3


Вы не можете начинать темы
Вы не можете отвечать на сообщения
Вы не можете редактировать свои сообщения
Вы не можете удалять свои сообщения
Вы не можете голосовать в опросах
Вы не можете прикреплять файлы к сообщениям
Вы не можете скачивать файлы

!ВНИМАНИЕ!
Сайт не предоставляет электронные версии произведений, а занимается лишь коллекционированием и каталогизацией ссылок, присылаемых и публикуемых на форуме нашими читателями. Если вы являетесь правообладателем какого-либо представленного материала и не желаете, чтобы ссылка на него находилась в нашем каталоге, свяжитесь с нами, и мы незамедлительно удалим ее. Файлы для обмена на трекере предоставлены пользователями сайта, и администрация не несет ответственности за их содержание. Просьба не заливать файлы, защищенные авторскими правами, а также файлы нелегального содержания!