[ Сегодня идет свободное скачивание без начисления Download ]


Статистика раздачи
Нет
 
   
 
Top  
 
 
-Французский шпион(2014) DVDRip- Год выпуска: 2014
Производство: Россия
Жанр: Детектив, боевик
Режиссер: Алексей Феоктистов
Продюсер: Алексей Феоктистов, Наталья Ковалькова
Актеры: Оскар Кучера, Евгений Редько, Анна Чурина, Дмитрий Супонин, Охунджон Комилов, Сергей Батрак
Описание фильма:
Лейтенант Андрей Канаев служит в социалистической Чехословакии. Советские войска выводятся обратно в СССР. Часть, в которой служил Канаев, расформировывается. Андрей расстроен сокращением и делится своими переживаниями с приятелем — чехом Мареком. Марек организовывает подставу, из-за которой Канаев оказывается вне закона. Через своего агента-вербовщика Софи он переправляет Андрея во Францию, где тот от безысходности поступает в «Иностранный Легион». В иностранном легионе Андрея вербует глава внешней разведки мсье Даниэль. Вскоре Андрей, уже в новом статусе и с новыми документами, возвращается в постперестроечную Россию и начинает строить новую жизнь, не забывая при этом выполнять поручения своих новых хозяев…
Перевод: Не требуется (язык русский)

Дата мировой премьеры: 22 марта 2014
Дата российской премьеры: 25 июля 2014
Дата выхода DVD релиза: 5 августа 2014
Продолжительность: 01:34:23
Качество видео: DVDRip (AVC)
Видеокодек: MPEG-4 AVC
Битрейт видео: ~1967 Кбит/с
Размер кадра: [email protected]
Аудиокодек: AC3 2 ch
Битрейт аудио: 224 Кбит/с

MediaInfo:

Общее
Уникальный идентификатор : 247047152273692531723550678197940135924 (0xB9DB8D02CC621793A1D9FB5C671227F4)
Полное имя : C:\NNM\Французский шпион\French agent 2014 DVDRip AVC.mkv
Формат : Matroska
Версия формата : Version 2
Размер файла : 1,45 Гбайт
Продолжительность : 1 ч. 34 м.
Общий поток : 2193 Кбит/сек
Дата кодирования : UTC 2014-09-19 21:02:55
Программа кодирования : mkvmerge v4.9.1 ('Ich will') built on Jul 11 2011 23:53:15
Библиотека кодирования : libebml v1.2.1 + libmatroska v1.1.1
Видео
Идентификатор : 1
Формат : AVC
Формат/Информация : Advanced Video Codec
Профиль формата : [email protected]
Параметр CABAC формата : Да
Параметр ReFrames формата : 8 кадров
Идентификатор кодека : V_MPEG4/ISO/AVC
Продолжительность : 1 ч. 34 м.
Битрейт : 1967 Кбит/сек
Ширина : 720 пикселей
Высота : 576 пикселей
Соотношение сторон : 16:9
Частота кадров : 25,000 кадров/сек
Стандарт вещания : PAL
Цветовое пространство : YUV
Субдискретизация насыщенности : 4:2:0
Битовая глубина : 8 бит
Тип развёртки : Прогрессивная
Бит/(Пиксели*Кадры) : 0.190
Размер потока : 1,27 Гбайт (88%)
Заголовок : Enigma
Библиотека кодирования : x264 core 116 r2044 392e762
Настройки программы : cabac=1 / ref=8 / deblock=1:-2:-2 / analyse=0x3:0x113 / me=umh / subme=9 / psy=1 / psy_rd=1.00:0.20 / mixed_ref=1 / me_range=32 / chroma_me=1 / trellis=2 / 8x8dct=1 / cqm=0 / deadzone=21,11 / fast_pskip=0 / chroma_qp_offset=-3 / threads=12 / sliced_threads=0 / nr=0 / decimate=0 / interlaced=0 / bluray_compat=0 / constrained_intra=0 / bframes=9 / b_pyramid=2 / b_adapt=2 / b_bias=0 / direct=3 / weightb=1 / open_gop=0 / weightp=2 / keyint=250 / keyint_min=25 / scenecut=40 / intra_refresh=0 / rc=2pass / mbtree=0 / bitrate=1967 / ratetol=1.0 / qcomp=0.60 / qpmin=0 / qpmax=69 / qpstep=4 / cplxblur=20.0 / qblur=0.5 / ip_ratio=1.40 / pb_ratio=1.30 / aq=1:1.00
Default : Да
Forced : Нет
Аудио
Идентификатор : 2
Формат : AC-3
Формат/Информация : Audio Coding 3
Расширение режима : CM (complete main)
Идентификатор кодека : A_AC3
Продолжительность : 1 ч. 34 м.
Вид битрейта : Постоянный
Битрейт : 224 Кбит/сек
Каналы : 2 канала
Расположение каналов : Front: L R
Частота : 48,0 КГц
Битовая глубина : 16 бит
Метод сжатия : С потерями
Размер потока : 151 Мбайт (10%)
Язык : Russian
Default : Да
Forced : Нет
Скриншоты: Время раздачи: Круглосуточно до 10 скачавших

[Цитировать]

Топик был перенесен из форума Новинки кинопроката в форум Детектив
Henkok



Показать сообщения:    

Текущее время: 06-Дек 15:16

Часовой пояс: UTC + 3


Вы не можете начинать темы
Вы не можете отвечать на сообщения
Вы не можете редактировать свои сообщения
Вы не можете удалять свои сообщения
Вы не можете голосовать в опросах
Вы не можете прикреплять файлы к сообщениям
Вы не можете скачивать файлы

!ВНИМАНИЕ!
Сайт не предоставляет электронные версии произведений, а занимается лишь коллекционированием и каталогизацией ссылок, присылаемых и публикуемых на форуме нашими читателями. Если вы являетесь правообладателем какого-либо представленного материала и не желаете, чтобы ссылка на него находилась в нашем каталоге, свяжитесь с нами, и мы незамедлительно удалим ее. Файлы для обмена на трекере предоставлены пользователями сайта, и администрация не несет ответственности за их содержание. Просьба не заливать файлы, защищенные авторскими правами, а также файлы нелегального содержания!