[ Сегодня идет свободное скачивание без начисления Download ]


Статистика раздачи
Нет
 
   
 
Top  
 
 
-Везёт же людям! (2014) HDTVRip- Год выпуска: 2014
Производство: Украина / SDK production
Жанр: Комедия
Режиссер: Александр Полынников
Актеры: Анна Щапова, Екатерина Порубель, Нонна Гришаева, Сергей Деньга, Ольга Мельничук, Николай Шкуратовский, Сергей Юрков, Леонид Анисимов, Татьяна Маркова, Ирина Токарчук
Описание фильма: Соне с утра не везет! Она чуть не попадает под машину Кости, которому так же не везет в этот день. По ошибке она уносит его папку с документами и ставит под угрозу срыва подписание важного контракта. На этом проблемы молодых людей не заканчиваются. От Кости уходит невеста, а Соню увольняют из театра. И она уже готова отказаться от мечты стать актрисой. Удастся ли героям найти свое счастье в этом году, если до Нового Года остается всего один день?
Язык: Русский

Продолжительность: 01:29:55
Качество видео: HDTVRip
Видеокодек: Xvid
Битрейт видео: ~1714 kbps
Размер кадра: 720x400
Аудиокодек: AC3 5.1
Битрейт аудио: 448 kbps
Сэмпл: Скачать

MediaInfo

Общее
Полное имя : Vezet.zhe.lyudyam.2014.HDTVRip.avi
Формат : AVI
Формат/Информация : Audio Video Interleave
Размер файла : 1,36 Гбайт
Продолжительность : 1 ч. 29 м.
Общий поток : 2172 Кбит/сек
Название фильма : Vezet.zhe.lyudyam.2014.XviD.HDTVRip
Режиссёр : @dvokat
Программа кодирования : VirtualDubMod 1.5.10.3 | www.virtualdub-fr.org || (build 2550/release)
Видео
Идентификатор : 0
Формат : MPEG-4 Visual
Профиль формата : Advanced [email protected]
Параметр BVOP формата : 4
Параметр QPel формата : Нет
Параметр GMC формата : Без точки перехода
Параметр матрицы формата : Default (MPEG)
Идентификатор кодека : XVID
Идентификатор кодека/Подсказка : XviD
Продолжительность : 1 ч. 29 м.
Битрейт : 1714 Кбит/сек
Ширина : 720 пикселей
Высота : 400 пикселей
Соотношение сторон : 16:9
Частота кадров : 25,000 кадров/сек
Цветовое пространство : YUV
Субдискретизация насыщенности : 4:2:0
Битовая глубина : 8 бит
Тип развёртки : Прогрессивная
Метод сжатия : С потерями
Бит/(Пиксели*Кадры) : 0.238
Размер потока : 1,08 Гбайт (79%)
Библиотека кодирования : XviD 1.2.1 (UTC 2008-12-04)
Аудио
Идентификатор : 1
Формат : AC-3
Формат/Информация : Audio Coding 3
Расширение режима : CM (complete main)
Параметр Endianness формата : Big
Идентификатор кодека : 2000
Продолжительность : 1 ч. 29 м.
Вид битрейта : Постоянный
Битрейт : 448 Кбит/сек
Каналы : 6 каналов
Расположение каналов : Front: L C R, Side: L R, LFE
Частота : 48,0 КГц
Битовая глубина : 16 бит
Метод сжатия : С потерями
Размер потока : 288 Мбайт (21%)
Выравнивание : Разделение по промежуткам
Продолжительность промежутка : 40 мс. (1,00 видеокадр)
Время предзагрузки промежутка : 500 мс.
Скриншоты:

Время раздачи: с 09:00 до 23:30

[Цитировать]

Топик был перенесен из форума Новинки кинопроката в форум Комедия
Henkok



Показать сообщения:    

Текущее время: 04-Дек 11:15

Часовой пояс: UTC + 3


Вы не можете начинать темы
Вы не можете отвечать на сообщения
Вы не можете редактировать свои сообщения
Вы не можете удалять свои сообщения
Вы не можете голосовать в опросах
Вы не можете прикреплять файлы к сообщениям
Вы не можете скачивать файлы

!ВНИМАНИЕ!
Сайт не предоставляет электронные версии произведений, а занимается лишь коллекционированием и каталогизацией ссылок, присылаемых и публикуемых на форуме нашими читателями. Если вы являетесь правообладателем какого-либо представленного материала и не желаете, чтобы ссылка на него находилась в нашем каталоге, свяжитесь с нами, и мы незамедлительно удалим ее. Файлы для обмена на трекере предоставлены пользователями сайта, и администрация не несет ответственности за их содержание. Просьба не заливать файлы, защищенные авторскими правами, а также файлы нелегального содержания!