[ Сегодня идет свободное скачивание без начисления Download ]


Статистика раздачи
Нет
 
   
 
Top  
 
 
-Грань будущего / Edge of Tomorrow (2014) BDRemux
«Живи. Умри. И снова»
- Год выпуска: 2014
Производство: США, Австралия / Warner Bros., Village Roadshow Pictures
Жанр: Фантастика, боевик
Описание фильма:
В недалёком будущем раса инопланетян вторгается на Землю. Никакая армия в мире не может противостоять им. Майор Уильям Кейдж умирает в бою, но случается невозможное — он оказывается во временной петле. Раз за разом он попадает в один и тот же бой, сражается и умирает… снова и снова. И каждое повторяющееся сражение приближает его к разгадке того, как победить врага.
Режиссер: Даг Лайман / Doug Liman
Продюсер: Джейсон Хоффс, Грегори Джейкобс, Том Лассалли
Актеры: Том Круз, Эмили Блант, Брендан Глисон, Билл Пэкстон, Джонас Армстронг, Тони Вэй, Кик Гарри, Франц Драмех, Драгомир Мрсич
Язык: Русский, английский
Перевод: Дублированный, Одноголосый закадровый (любительский)
Вид субтитров: Вшитые отключаемые
Язык субтитров: Русский (forced, full), украинский, английский (full, SDH, SDH-colored)

Дата мировой премьеры: 28 мая 2014
Дата российской премьеры: 5 июня 2014, «Каро-Премьер»
Дата выхода DVD релиза: 2 октября 2014, «CP Дистрибуция»
Дата выхода Blu-Ray релиза: 2 октября 2014, «CP Дистрибуция»
Рейтинг MPAA: PG-13
Возраст: 12+
Продолжительность: 01:53:29
Качество видео: BDRemux
Видео: MPEG-4 AVC/H.264 (High Profile 4.1), 1920x1080, ~25642 kbps (0.575 bit/pixel), 23.976 fps
Аудио 1: AC3 5.1, 384 kbps, 48 kHz, 16-bit [Русский - дублированный «iTunes Russia»]
Аудио 2: DTS 5.1, 1536 kbps, 48 kHz, 24-bit [Русский - одноголосый закадровый «Д. Есарев»]
Аудио 3: DTS-HD MA 7.1, 5208 kbps, 48 kHz, 24-bit [Английский - оригинал]

Отчёт MediaInfo

Полное имя : D:\Грань.будущего-Edge.of.Tomorrow.(2014).BDRemux.[1080p].mkv
Формат : Matroska
Версия формата : Version 2
Размер файла : 26,0 Гбайт
Продолжительность : 1 ч. 53 м.
Режим общего битрейта : Переменный
Общий поток : 32,7 Мбит/сек
Название фильма : Edge of Tomorrow (2014) / Lelya_K for NNM-Club
Дата кодирования : UTC 2014-09-19 16:58:30
Программа кодирования : mkvmerge v5.7.0 ('The Whirlwind') built on Aug 7 2012 14:11:40
Библиотека кодирования : libebml v1.2.3 + libmatroska v1.3.0
Attachment : Yes
Видео
Идентификатор : 1
Формат : AVC
Формат/Информация : Advanced Video Codec
Профиль формата : High@L4.1
Параметр CABAC формата : Да
Параметр ReFrames формата : 2 кадра
Параметр GOP формата : M=1, N=10
Идентификатор кодека : V_MPEG4/ISO/AVC
Продолжительность : 1 ч. 53 м.
Вид битрейта : Переменный
Битрейт : 28,6 Мбит/сек
Ширина : 1920 пикселей
Высота : 1080 пикселей
Соотношение сторон : 16:9
Режим частоты кадров : Постоянный
Частота кадров : 23,976 кадра/сек
Цветовое пространство : YUV
Субдискретизация насыщенности : 4:2:0
Битовая глубина : 8 бит
Тип развёртки : Прогрессивная
Бит/(Пиксели*Кадры) : 0.575
Размер потока : 22,7 Гбайт (87%)
Заголовок : Грань.будущего-Edge.of.Tomorrow.(2014).BDRemux.[1080p]
Язык : English
Default : Да
Forced : Нет
Аудио #1
Идентификатор : 2
Формат : AC-3
Формат/Информация : Audio Coding 3
Расширение режима : CM (complete main)
Параметр Endianness формата : Big
Идентификатор кодека : A_AC3
Продолжительность : 1 ч. 53 м.
Вид битрейта : Постоянный
Битрейт : 384 Кбит/сек
Каналы : 6 каналов
Расположение каналов : Front: L C R, Side: L R, LFE
Частота : 48,0 КГц
Битовая глубина : 16 бит
Метод сжатия : С потерями
Размер потока : 312 Мбайт (1%)
Заголовок : AC3 5.1 / 384 kbps / Dub (iTunes Russia)
Язык : Russian
Default : Да
Forced : Нет
Аудио #2
Идентификатор : 3
Формат : DTS
Формат/Информация : Digital Theater Systems
Идентификатор кодека : A_DTS
Продолжительность : 1 ч. 53 м.
Вид битрейта : Постоянный
Битрейт : 1510 Кбит/сек
Каналы : 6 каналов
Расположение каналов : Front: L C R, Side: L R, LFE
Частота : 48,0 КГц
Битовая глубина : 24 бит
Метод сжатия : С потерями
Размер потока : 1,20 Гбайт (5%)
Заголовок : DTS 5.1 / 1536 kbps / VO (Дмитрий Есарев)
Язык : Russian
Default : Нет
Forced : Нет
Аудио #3
Идентификатор : 4
Формат : DTS
Формат/Информация : Digital Theater Systems
Профиль формата : MA / Core
Идентификатор кодека : A_DTS
Продолжительность : 1 ч. 53 м.
Вид битрейта : Переменный
Битрейт : 1597 Кбит/сек / 1510 Кбит/сек
Каналы : 8 каналов / 6 каналов
Расположение каналов : Front: L C R, Side: L R, Back: L R, LFE / Front: L C R, Side: L R, LFE
Частота : 48,0 КГц
Битовая глубина : 24 бит
Метод сжатия : Без потерь / Lossy
Заголовок : DTS-HD MA 7.1 / 5208 Kbps / Original
Язык : English
Default : Нет
Forced : Нет
Текст #1
Идентификатор : 5
Формат : UTF-8
Идентификатор кодека : S_TEXT/UTF8
Идентификатор кодека/Информация : UTF-8 Plain Text
Заголовок : Forced
Язык : Russian
Default : Да
Forced : Нет
Текст #2
Идентификатор : 6
Формат : UTF-8
Идентификатор кодека : S_TEXT/UTF8
Идентификатор кодека/Информация : UTF-8 Plain Text
Заголовок : Full
Язык : Russian
Default : Нет
Forced : Нет
Текст #3
Идентификатор : 7
Формат : UTF-8
Идентификатор кодека : S_TEXT/UTF8
Идентификатор кодека/Информация : UTF-8 Plain Text
Заголовок : Full
Язык : Ukrainian
Default : Нет
Forced : Нет
Текст #4
Идентификатор : 8
Формат : UTF-8
Идентификатор кодека : S_TEXT/UTF8
Идентификатор кодека/Информация : UTF-8 Plain Text
Заголовок : Full
Язык : English
Default : Нет
Forced : Нет
Текст #5
Идентификатор : 9
Формат : UTF-8
Идентификатор кодека : S_TEXT/UTF8
Идентификатор кодека/Информация : UTF-8 Plain Text
Заголовок : SDH
Язык : English
Default : Нет
Forced : Нет
Текст #6
Идентификатор : 10
Формат : UTF-8
Идентификатор кодека : S_TEXT/UTF8
Идентификатор кодека/Информация : UTF-8 Plain Text
Заголовок : SDH (Colored)
Язык : English
Default : Нет
Forced : Нет
Меню
00:00:00.000 : en:00:00:00.000
00:10:28.169 : en:00:10:28.169
00:17:39.100 : en:00:17:39.100
00:24:50.197 : en:00:24:50.197
00:35:57.947 : en:00:35:57.947
00:46:27.284 : en:00:46:27.284
00:54:34.771 : en:00:54:34.771
01:04:59.562 : en:01:04:59.562
01:12:53.077 : en:01:12:53.077
01:23:08.901 : en:01:23:08.901
01:32:34.132 : en:01:32:34.132
01:42:53.584 : en:01:42:53.584
01:45:46.215 : en:01:45:46.215
Скриншоты:

[Цитировать]



Показать сообщения:    

Текущее время: 09-Дек 01:10

Часовой пояс: UTC + 3


Вы не можете начинать темы
Вы не можете отвечать на сообщения
Вы не можете редактировать свои сообщения
Вы не можете удалять свои сообщения
Вы не можете голосовать в опросах
Вы не можете прикреплять файлы к сообщениям
Вы не можете скачивать файлы

!ВНИМАНИЕ!
Сайт не предоставляет электронные версии произведений, а занимается лишь коллекционированием и каталогизацией ссылок, присылаемых и публикуемых на форуме нашими читателями. Если вы являетесь правообладателем какого-либо представленного материала и не желаете, чтобы ссылка на него находилась в нашем каталоге, свяжитесь с нами, и мы незамедлительно удалим ее. Файлы для обмена на трекере предоставлены пользователями сайта, и администрация не несет ответственности за их содержание. Просьба не заливать файлы, защищенные авторскими правами, а также файлы нелегального содержания!