[ Сегодня идет свободное скачивание без начисления Download ]


Статистика раздачи
Нет
 
   
 
Top  
 
 
-Узнай меня, если сможешь (2014) HDTV [1080i] (серии 1-32 из 32). Год выпуска: 2014
Производство: Украина
Жанр: Мелодрама
Перевод: не требуется
Субтитры: Отсутствуют

Дата российской премьеры: 01.09.2014
Режиссер: Алексей Гусев, Егор Грамматиков
Актеры: Евгения Лоза, Иван Стебунов, Юрий Стоянов, Тимур Ефременков, Ярослав Жалнин, Ирина Розанова, Борис Щербаков, Сергей Перегудов, Сергей Жигунов, Дмитрий Никонов
Описание фильма:
Молодой парень по имени Илья Авдеев живет в небольшом приморском городке, ему 18 лет и он страстно влюблен в Алису. Отец Алисы против её увлечения Ильей, и вынуждает девушку кокетничать с более достойными кавалерами. Алиса выходит замуж за Дениса, подопечного своего отца, а Илью они устраняют, повесив на него ограбление казино и убийство охранника, что провернул сам Денис. Парню выносят обвинительный приговор, и теперь он должен отсидеть в тюрьме десять лет. После того как молодой человек выходит на свободу, он попадает под опеку опытного криминального авторитета. Даже внешность героя меняется. Он становится новой личностью, безжалостным мстителем.
Продолжительность: 32 х ~ 00:45:00 серия
Качество видео: HDTV [1080i]
Сэмпл: Скачать
Видеокодек: AVC/H.264
Битрейт видео: ~9835 kb/s
Размер кадра: 1920x1080
Аудиокодек: MP2, 2ch
Битрейт аудио: 192 kb/s

MediaInfo

Видео
Идентификатор : 224 (0xE0)
Идентификатор меню : 1 (0x1)
Формат : AVC
Формат/Информация : Advanced Video Codec
Профиль формата : High@L4.1
Параметр CABAC формата : Да
Параметр ReFrames формата : 3 кадра
Идентификатор кодека : 27
Продолжительность : 46 м.
Вид битрейта : Постоянный
Битрейт : 9835 Кбит/сек
Ширина : 1920 пикселей
Высота : 1080 пикселей
Соотношение сторон : 16:9
Частота кадров : 25,000 кадров/сек
Стандарт вещания : PAL
Цветовое пространство : YUV
Субдискретизация насыщенности : 4:2:0
Битовая глубина : 8 бит
Тип развёртки : Чересстрочная
Порядок развёртки : Верхнее поле первое
Бит/(Пиксели*Кадры) : 0.190
Размер потока : 3,12 Гбайт (93%)
Основные цвета : BT.709
Характеристики трансфера : BT.709
Коэффициенты матрицы : BT.709
Аудио
Идентификатор : 192 (0xC0)
Идентификатор меню : 1 (0x1)
Формат : MPEG Audio
Версия формата : Version 1
Профиль формата : Layer 2
Идентификатор кодека : 3
Продолжительность : 46 м.
Вид битрейта : Постоянный
Битрейт : 192 Кбит/сек
Каналы : 2 канала
Частота : 48,0 КГц
Метод сжатия : С потерями
Задержка видео : 16 мс.
Размер потока : 63,6 Мбайт (2%)
Язык : Russian

Внимание! Раздача ведётся путём добавления новых серий

; при каждом добавлении создаётся новый торрент.
Чтобы начать докачку новой серии, пользователям необходимо сделать следующее:
1. Остановить скачивание;
2. Удалить старый торрент у себя из клиента (старые серии удалять не надо);
3. Скачать новый торрент и запустить его у себя в клиенте вместо старого, при этом указать клиенту путь в старую папку куда и должно происходить скачивание новых серий. Ваш клиент при этом должен произвести хеширование (проверку) старой папки и будет докачивать только те серии, которых у вас ещё нет. Старые серии при этом не удаляются, а продолжают раздаваться! Eсли вы уже удалили старые серии, то предотвратить повторную закачку старых серий можно, отжав галочку в соответствующих местах при запуске нового торрента.
Скриншоты:

[Цитировать]



Показать сообщения:    

Текущее время: 10-Дек 04:03

Часовой пояс: UTC + 3


Вы не можете начинать темы
Вы не можете отвечать на сообщения
Вы не можете редактировать свои сообщения
Вы не можете удалять свои сообщения
Вы не можете голосовать в опросах
Вы не можете прикреплять файлы к сообщениям
Вы не можете скачивать файлы

!ВНИМАНИЕ!
Сайт не предоставляет электронные версии произведений, а занимается лишь коллекционированием и каталогизацией ссылок, присылаемых и публикуемых на форуме нашими читателями. Если вы являетесь правообладателем какого-либо представленного материала и не желаете, чтобы ссылка на него находилась в нашем каталоге, свяжитесь с нами, и мы незамедлительно удалим ее. Файлы для обмена на трекере предоставлены пользователями сайта, и администрация не несет ответственности за их содержание. Просьба не заливать файлы, защищенные авторскими правами, а также файлы нелегального содержания!