[ Сегодня идет свободное скачивание без начисления Download ]


Статистика раздачи
Нет
 
   
 
Top  
 
 
-Любимые женщины Казановы (2014) SATRip [1-4 серия из 4]- Год выпуска: 2014
Жанр: Мелодрама

Дата российской премьеры: 20 сентября 2014
Режиссер: Сергей Быстрицкий
Актеры: Кирилл Запорожский, Полина Сыркина, Тамара Сёмина
Описание фильма:
Иван - единственный мужчина в семье. Он окружен заботами мамы, бабушки и двух сестер. Женщины не дают ему "продохнуть", мучая советами по поводу личной жизни. Однажды молодой человек заключает пари с одной безбашенной девицей, представляя ее своей семье в качестве будущей жены. Иван делает это намеренно, чтобы когда он приведет в дом настоящую любимую девушку, семья приняла бы ее радостно. Родственники в недоумении и не могут смириться с взбалмошной невесткой, но постепенно девушка вносит изменения в размеренный уклад семьи...
Продолжительность: 4 x ~ 00:43:04
Качество видео: SATRip
Видеокодек: DivX 5
Битрейт видео: ~1600 kb/s
Размер кадра: 720x400
Битрейт аудио: 2 ch, 128 kb/s

Медиаинфо:

Общее
Полное имя : E:\Фильмы\Любимые_женщины_Казановы.SATRip\01_Любимые_женщины_Казановы.avi
Формат : AVI
Формат/Информация : Audio Video Interleave
Размер файла : 557 Мбайт
Продолжительность : 44 м.
Общий поток : 1741 Кбит/сек
Программа кодирования : transcode-1.1.5
Видео
Идентификатор : 0
Формат : MPEG-4 Visual
Параметр BVOP формата : Да
Параметр QPel формата : Нет
Параметр GMC формата : Без точки перехода
Параметр матрицы формата : Default (H.263)
Идентификатор кодека : DX50
Идентификатор кодека/Подсказка : DivX 5
Продолжительность : 44 м.
Битрейт : 1600 Кбит/сек
Ширина : 720 пикселей
Высота : 400 пикселей
Соотношение сторон : 16:9
Частота кадров : 25,000 кадров/сек
Цветовое пространство : YUV
Субдискретизация насыщенности : 4:2:0
Битовая глубина : 8 бит
Тип развёртки : Прогрессивная
Метод сжатия : С потерями
Бит/(Пиксели*Кадры) : 0.222
Размер потока : 512 Мбайт (92%)
Библиотека кодирования : Intel(R) MPEG-4 encoder based on Intel(R) IPP 6.1 build 137.20[6.1.137.763]
Аудио
Идентификатор : 1
Формат : MPEG Audio
Версия формата : Version 1
Профиль формата : Layer 3
Режим : Joint stereo
Расширение режима : MS Stereo
Идентификатор кодека : 55
Идентификатор кодека/Подсказка : MP3
Продолжительность : 44 м.
Вид битрейта : Постоянный
Битрейт : 128 Кбит/сек
Каналы : 2 канала
Частота : 48,0 КГц
Метод сжатия : С потерями
Размер потока : 41,0 Мбайт (7%)
Выравнивание : Соединение по промежуткам
Продолжительность промежутка : 24 мс. (0,60 видеокадр)
Время предзагрузки промежутка : 48 мс.
Библиотека кодирования : LAME3.98.2
Все релизы "Любимые женщины Казановы" Время раздачи: с 23:00 до 8:30,

[Цитировать]

Топик был перенесен из форума Отечественные сериалы в форум Архив
cyrmos



Показать сообщения:    

Текущее время: 27-Мар 02:52

Часовой пояс: UTC + 6


Вы не можете начинать темы
Вы не можете отвечать на сообщения
Вы не можете редактировать свои сообщения
Вы не можете удалять свои сообщения
Вы не можете голосовать в опросах
Вы не можете прикреплять файлы к сообщениям
Вы не можете скачивать файлы

!ВНИМАНИЕ!
Сайт не предоставляет электронные версии произведений, а занимается лишь коллекционированием и каталогизацией ссылок, присылаемых и публикуемых на форуме нашими читателями. Если вы являетесь правообладателем какого-либо представленного материала и не желаете, чтобы ссылка на него находилась в нашем каталоге, свяжитесь с нами, и мы незамедлительно удалим ее. Файлы для обмена на трекере предоставлены пользователями сайта, и администрация не несет ответственности за их содержание. Просьба не заливать файлы, защищенные авторскими правами, а также файлы нелегального содержания!