[ Сегодня идет свободное скачивание без начисления Download ]


Статистика раздачи
Нет
 
   
 
Top  
 
 
-Миллион способов потерять голову / A Million Ways to Die in the West (2014) BDRip- Год выпуска: 2014
Производство: США / Bluegrass Films, Fuzzy Door Productions, RGB Media
Жанр: Комедия, Вестерн
Перевод: Дублированный (Лицензия)
Субтитры: Отдельным файлом
Язык субтитров: Русский, украинский, английский
Режиссер: Сет МакФарлейн
Продюсер: Джейсон Кларк, Сет МакФарлейн, Скотт Стубер
Актеры: Сет МакФарлейн, Шарлиз Терон, Аманда Сайфред, Лиам Нисон, Джованни Рибизи, Нил Патрик Харрис, Сара Силверман, Кристофер Хэйген, Уэс Стьюди, Мэтт Кларк
Описание фильма:
Угораздило же влюбиться не в том месте и не в то время. Здесь хамят в ресторанах, о горячей воде слагают легенды, да и с транспортом полный коллапс. Но у таинственной незнакомки отменная фигура, да и стреляет она без промаха. Кто же по своей воле откажется от такой красотки?

Дата мировой премьеры: 29 мая 2014
Дата российской премьеры: 10 июля 2014, «UPI»
Дата выхода DVD/Blu-Ray релиза: 25 сентября 2014, «Двадцатый Век Фокс СНГ»
Продолжительность: 01:55:54
Качество видео: BDRip
Видеокодек: Xvid
Битрейт видео: ~1915 Kbps
Размер кадра: 720x304
Аудио #1: Русский: AC3, 48.0 KHz, 6 ch, 384 Kbps, CBR
Аудио #2: Английский: AC3, 48.0 KHz, 6 ch, 384 Kbps, CBR
Сэмпл: Скачать

MediaInfo:

Общее
Полное имя : E:\Фильмы\Million.sposobov.poteryat.golovu.2014.D.BDRip.2.18Gb\Million.sposobov.poteryat.golovu.2014.D.BDRip.2.18Gb.avi
Формат : AVI
Формат/Информация : Audio Video Interleave
Профиль формата : OpenDML
Размер файла : 2,18 Гбайт
Продолжительность : 1 ч. 56 м.
Общий поток : 2691 Кбит/сек
Название фильма : Миллион способов потерять голову / A Million Ways to Die in the West (2014) BDRip
Режиссёр : Gellard
Жанр : комедия, вестерн
Программа кодирования : VirtualDubMod 1.5.10.2 (build 2542/release)
Правообладатель : http://hqclub.net/
Примечание : 06.09.2014
Видео
Идентификатор : 0
Формат : MPEG-4 Visual
Профиль формата : Advanced Simple@L5
Параметр BVOP формата : 1
Параметр QPel формата : Нет
Параметр GMC формата : Без точки перехода
Параметр матрицы формата : Выборочная
Идентификатор кодека : XVID
Идентификатор кодека/Подсказка : XviD
Продолжительность : 1 ч. 56 м.
Битрейт : 1905 Кбит/сек
Ширина : 720 пикселей
Высота : 304 пикселя
Соотношение сторон : 2,35:1
Частота кадров : 23,976 кадра/сек
Цветовое пространство : YUV
Субдискретизация насыщенности : 4:2:0
Битовая глубина : 8 бит
Тип развёртки : Прогрессивная
Метод сжатия : С потерями
Бит/(Пиксели*Кадры) : 0.363
Размер потока : 1,54 Гбайт (71%)
Библиотека кодирования : XviD 65
Аудио #1
Идентификатор : 1
Формат : AC-3
Формат/Информация : Audio Coding 3
Расширение режима : CM (complete main)
Параметр Endianness формата : Big
Идентификатор кодека : 2000
Продолжительность : 1 ч. 56 м.
Вид битрейта : Постоянный
Битрейт : 384 Кбит/сек
Каналы : 6 каналов
Расположение каналов : Front: L C R, Side: L R, LFE
Частота : 48,0 КГц
Битовая глубина : 16 бит
Метод сжатия : С потерями
Размер потока : 319 Мбайт (14%)
Выравнивание : Разделение по промежуткам
Продолжительность промежутка : 42 мс. (1,00 видеокадр)
Время предзагрузки промежутка : 500 мс.
Аудио #2
Идентификатор : 2
Формат : AC-3
Формат/Информация : Audio Coding 3
Расширение режима : CM (complete main)
Параметр Endianness формата : Big
Идентификатор кодека : 2000
Продолжительность : 1 ч. 56 м.
Вид битрейта : Постоянный
Битрейт : 384 Кбит/сек
Каналы : 6 каналов
Расположение каналов : Front: L C R, Side: L R, LFE
Частота : 48,0 КГц
Битовая глубина : 16 бит
Метод сжатия : С потерями
Размер потока : 319 Мбайт (14%)
Выравнивание : Разделение по промежуткам
Продолжительность промежутка : 42 мс. (1,00 видеокадр)
Время предзагрузки промежутка : 500 мс.
Общее
Полное имя : E:\Фильмы\Million.sposobov.poteryat.golovu.2014.D.BDRip.2.18Gb\Million.sposobov.poteryat.golovu.2014.D.BDRip.2.18Gb.ENG.SDH.COLORED.srt
Формат : SubRip
Размер файла : 147 Кбайт
Текст
Формат : SubRip
Метод сжатия : Без потерь
Общее
Полное имя : E:\Фильмы\Million.sposobov.poteryat.golovu.2014.D.BDRip.2.18Gb\Million.sposobov.poteryat.golovu.2014.D.BDRip.2.18Gb.ENG.SDH.srt
Формат : SubRip
Размер файла : 137 Кбайт
Текст
Формат : SubRip
Метод сжатия : Без потерь
Общее
Полное имя : E:\Фильмы\Million.sposobov.poteryat.golovu.2014.D.BDRip.2.18Gb\Million.sposobov.poteryat.golovu.2014.D.BDRip.2.18Gb.ENG.srt
Формат : SubRip
Размер файла : 124 Кбайт
Текст
Формат : SubRip
Метод сжатия : Без потерь
Общее
Полное имя : E:\Фильмы\Million.sposobov.poteryat.golovu.2014.D.BDRip.2.18Gb\Million.sposobov.poteryat.golovu.2014.D.BDRip.2.18Gb.RUS.srt
Размер файла : 114 Кбайт
Общее
Полное имя : E:\Фильмы\Million.sposobov.poteryat.golovu.2014.D.BDRip.2.18Gb\Million.sposobov.poteryat.golovu.2014.D.BDRip.2.18Gb.UKR.srt
Размер файла : 113 Кбайт

Знаете ли вы, что...:

• Идея фильма родилась из шутки Сета МакФарлейна, Алека Салкина и Уэллесли Уайлда. Общаясь между собой, они часто смеялись над тем, каким опасным всегда изображается Дикий Запад и как много существует там способов, чтобы умереть.
• По сценарию этого фильма Сет МакФарлейн написал книгу. Это первая книга в его карьере.
• Лиам Нисон согласился сыграть роль Клинча Лизервуда при условии, что его персонаж будет разговаривать с сильным ирландским акцентом. Сет МакФарлейн это одобрил.
• Шарлиз Терон пришлось носить парик на съемках этого фильма, так как она побрила голову для своей роли в фильме «Безумный Макс: Дорога ярости» (2015).
• На одной из вывесок в городе написано «Windisch and Sons» (Уиндиш и сыновья). Это отсылка к Кристоферу Уиндишу (Christopher Windisch), координатору строительства декораций для фильма, и его сыну, который был бригадиром строительной бригады.
• Когда персонаж Сета МакФарлейна говорит на языке апачи, он произносит «Ми Ла Ку Нис, Ми Ла Ку Нис» и эта фраза сопровождается субтитром «Хорошо, хорошо». Подобная шутка использовалась также в проекте МакФарлейна «Гриффины: Это ловушка» (2010), где ее произносит Джабба Хатт.
• В сцене, когда Клинч выходит из дома Альберта, чтобы найти его снаружи, Клинч выходит через входную дверь и кадр в этот момент – это точная копия знаменитых сцен из начала и концовки фильма «Искатели» (1956).
• Нил Патрик Харрис произносит свою знаменитую по сериалу «Как я встретил вашу маму» (2005-2014) фразу — «Вызов принят!» (Challenge accepted!), когда Альберт вызывает его на дуэль.
• Эпизодическая роль Джейми Фокса в образе Джанго была добавлена после плохой реакции зрителей на тестовых просмотрах на сцену с тиром на ярмарке, в которой в качестве мишеней были использованы изображения чернокожих рабов.

Ошибки в фильме:

• Хотя электрическая дуговая сварка, показанная в фильме, была изобретена в начале 1880-х годов, но ее использование получило распространение только в 20-ом веке.
• В тире на ярмарке только 10 целей (2 ряда по 5). Однако Анна выбивает 12 из 10, когда получает лучший результат.
• Когда показывают доктора Брауна и знаменитый автомобиль DeLorean, видно, что на задней части машины нет блока «Mr. Fusion», который превращал мусор в топливо.
Релиз группа:
Скриншоты:

[Цитировать]

Топик был перенесен из форума Новинки кинопроката в форум Комедия
Henkok



Показать сообщения:    

Текущее время: 08-Дек 11:00

Часовой пояс: UTC + 3


Вы не можете начинать темы
Вы не можете отвечать на сообщения
Вы не можете редактировать свои сообщения
Вы не можете удалять свои сообщения
Вы не можете голосовать в опросах
Вы не можете прикреплять файлы к сообщениям
Вы не можете скачивать файлы

!ВНИМАНИЕ!
Сайт не предоставляет электронные версии произведений, а занимается лишь коллекционированием и каталогизацией ссылок, присылаемых и публикуемых на форуме нашими читателями. Если вы являетесь правообладателем какого-либо представленного материала и не желаете, чтобы ссылка на него находилась в нашем каталоге, свяжитесь с нами, и мы незамедлительно удалим ее. Файлы для обмена на трекере предоставлены пользователями сайта, и администрация не несет ответственности за их содержание. Просьба не заливать файлы, защищенные авторскими правами, а также файлы нелегального содержания!