[ Сегодня идет свободное скачивание без начисления Download ]


Статистика раздачи
Нет
 
   
 
Top  
 
 
-Реальные пацаны. Возвращение (2014) WEB-DLRip [H.264/720p-LQ] (сезон 7, серии 1-13 из ?? (123-135 из ??))[обновляемая]- Год выпуска: 2014
Жанр: Комедия
Производство: ТНТ
Режиссер: Жанна Кадникова
Продюсеры: Антон Зайцев
Актеры: Николай Наумов, Антон Богданов, Владимир Селиванов, Станислав Тляшев, Зоя Бербер, Игорь Ознобихин, Марина Федункив, Валентина Мазунина, Алексей Базанов, Армен Бежанян, Мария Шекунова
Описание фильма:
Когда Колян и его пацаны проживали в Перми, за душой у них не было ничего. У Коляна появилась любящая жена и ребёнок, пророчащая счастливая жизнь. У пацанов, Вована и Антохи начали как то "налаживаться дела" и они все перебрались в столицу-матушку. Прошло пару лет. Колян оказывается не такой уж и счастливый семьянин, брак который себя исчерпал. Вован и Антоха, как были на мели так и остались. Значит пора возвращаться на родину...

Продолжительность: ~00:25:00 серия
Качество видео: WEB-DL
Видеокодек: MPEG-4 AVC/H.264
Битрейт видео: ~3200 Кбит/сек
Размер кадра: 1280 x 720
Аудиокодек: AC-3 2.0
Битрейт аудио: ~192 Кбит/с

MediaInfo

Общее
Уникальный идентификатор : 235252615284042296587585646733730826554 (0xB0FC0170C6FBDE189E788F29BD30C93A)
Полное имя : E:\Раздачи\Realnye.pacany.Vozvraschenie.2014.WEB-DL.(720p)\Realnye.pacany.Vozvraschenie.(01.seriya).2014.WEB-DL.(720p).mkv
Формат : Matroska
Версия формата : Version 2
Размер файла : 562 Мбайт
Продолжительность : 23 м.
Общий поток : 3342 Кбит/сек
Название фильма : Realnye.pacany.Vozvraschenie.(01.seriya).2014.WEB-DL.(720p).MediaClub
Дата кодирования : UTC 2014-09-01 10:49:06
Программа кодирования : mkvmerge v5.8.0 ('No Sleep / Pillow') built on Sep 2 2012 15:37:04
Библиотека кодирования : libebml v1.2.3 + libmatroska v1.3.0
Видео
Идентификатор : 1
Формат : AVC
Формат/Информация : Advanced Video Codec
Профиль формата : High@L4.0
Параметр CABAC формата : Да
Параметр ReFrames формата : 8 кадров
Идентификатор кодека : V_MPEG4/ISO/AVC
Продолжительность : 23 м.
Битрейт : 3083 Кбит/сек
Ширина : 1280 пикселей
Высота : 720 пикселей
Соотношение сторон : 16:9
Режим частоты кадров : Постоянный
Частота кадров : 25,000 кадров/сек
Цветовое пространство : YUV
Субдискретизация насыщенности : 4:2:0
Битовая глубина : 8 бит
Тип развёртки : Прогрессивная
Бит/(Пиксели*Кадры) : 0.134
Размер потока : 519 Мбайт (92%)
Библиотека кодирования : x264 core 125
Настройки программы : cabac=1 / ref=8 / deblock=1:-1:-1 / analyse=0x3:0x133 / me=umh / subme=9 / psy=1 / psy_rd=1.00:0.15 / mixed_ref=1 / me_range=16 / chroma_me=1 / trellis=2 / 8x8dct=1 / cqm=0 / deadzone=21,11 / fast_pskip=1 / chroma_qp_offset=-3 / threads=18 / lookahead_threads=3 / sliced_threads=0 / nr=0 / decimate=1 / interlaced=0 / bluray_compat=0 / constrained_intra=0 / bframes=3 / b_pyramid=2 / b_adapt=2 / b_bias=0 / direct=3 / weightb=1 / open_gop=0 / weightp=2 / keyint=100 / keyint_min=10 / scenecut=40 / intra_refresh=0 / rc_lookahead=60 / rc=crf / mbtree=1 / crf=17.0 / qcomp=0.60 / qpmin=0 / qpmax=69 / qpstep=4 / vbv_maxrate=3600 / vbv_bufsize=3600 / crf_max=0.0 / nal_hrd=none / ip_ratio=1.40 / aq=1:1.00
Default : Да
Forced : Да
Аудио
Идентификатор : 2
Формат : AC-3
Формат/Информация : Audio Coding 3
Расширение режима : CM (complete main)
Параметр Endianness формата : Big
Идентификатор кодека : A_AC3
Продолжительность : 23 м.
Вид битрейта : Постоянный
Битрейт : 192 Кбит/сек
Каналы : 2 канала
Расположение каналов : Front: L R
Частота : 48,0 КГц
Битовая глубина : 16 бит
Метод сжатия : С потерями
Задержка видео : -80 мс.
Размер потока : 32,3 Мбайт (6%)
Язык : Russian
Default : Да
Forced : Да

Дополнительная информация:

Внимание! Раздача ведётся путём добавления новых серий; при каждом добавлении создётся новый торрент. Чтобы начать докачку новой серии, пользователям необходимо сделать следующее:
(1) остановить скачивание,
(2) удалить старый торрент у себя из клиента (старые серии удалять не надо),
(3) скачать новый торрент и запустить его у себя в клиенте вместо старого, при этом указать клиенту путь в старую папку куда и должно происходить скачивание новых серий.
Ваш клиент при этом должен произвести хеширование (проверку) старой папки (если не производит сам - помогите ему сделать это), и будет докачивать только те серии которых у вас ещё нет. Старые серии при этом не удаляются, а продолжают раздаваться!
Eсли вы уже удалили старые серии, то предотвратить повторную закачку старых серий можно, отжав галочку в соответсвующих местах при запуске нового торрента. По возможности, желательно не удалять старые серии как можно дольше чтобы релизёр не столько продолжал раздавать старые серии, а смог сконцентрироваться на новых.
Скриншоты: Реальные пацаны на NoNaMe Club

[Цитировать]

Топик был перенесен из форума Новинки кинопроката в форум Реальные пацаны
Henkok



Показать сообщения:    

Текущее время: 09-Дек 08:55

Часовой пояс: UTC + 3


Вы не можете начинать темы
Вы не можете отвечать на сообщения
Вы не можете редактировать свои сообщения
Вы не можете удалять свои сообщения
Вы не можете голосовать в опросах
Вы не можете прикреплять файлы к сообщениям
Вы не можете скачивать файлы

!ВНИМАНИЕ!
Сайт не предоставляет электронные версии произведений, а занимается лишь коллекционированием и каталогизацией ссылок, присылаемых и публикуемых на форуме нашими читателями. Если вы являетесь правообладателем какого-либо представленного материала и не желаете, чтобы ссылка на него находилась в нашем каталоге, свяжитесь с нами, и мы незамедлительно удалим ее. Файлы для обмена на трекере предоставлены пользователями сайта, и администрация не несет ответственности за их содержание. Просьба не заливать файлы, защищенные авторскими правами, а также файлы нелегального содержания!