[ Сегодня идет свободное скачивание без начисления Download ]


Статистика раздачи
Нет
 
   
 
Top  
 
 
-Трансформеры: Эпоха истребления / Transformers: Age of Extinction (2014) BDRip [1080p] 3D [Горизонтальная анаморфная стереопара] [Line]- Год выпуска: 2014
Производство: США, Китай / Paramount Pictures, Hasbro, Di Bonaventura Pictures
Жанр: Фантастика, Боевик, Приключения
Режиссер: Майкл Бэй
Продюсер: Йен Брайс, Том ДеСанто, Лоренцо Ди Бонавентура
Актеры: Марк Уолберг, Никола Пельтц, Джек Рейнор, Стэнли Туччи, Келси Грэммер, Титус Уэлливер, ТиДжей Миллер, Ли Бинбин, София Майлс, Питер Каллен
Описание фильма:
Автоботы и десептиконы покинули планету, оставив человечество собирать ее по кусочкам. Между тем группа могущественных бизнесменов и гениальных ученых пытается извлечь уроки из ошибок прошлого и улучшить технологии до такой степени, чтобы выйти за пределы контролируемого ранее. В это время другая группа — древних мощных трансформеров — берет Землю под прицел.
Перевод: Дублированный (Чистый звук)
Субтитры: Вшитые отключаемые
Язык субтитров: Английский

Дата мировой премьеры: 25 июня 2014
Дата российской премьеры: 26 июня 2014, «Централ Партнершип» 3D
Дата украинской премьеры: 26 июня 2014, «B&H Film Distribution Company»
Дата выхода DVD/Blu-Ray релиза: 3 ноября 2014, «Новый Диск»
Продолжительность: 02:45:07
Качество видео: BDRip [1080p] [profile-LQ]
Видеокодек: MPEG-4/H.264
Битрейт видео: ~8835 Kbps
Размер кадра: 1920x1016
Аудио #1: Русский: AC-3, 48.0 KHz, 2 ch, 384 Kbps, CBR
Аудио #2: Английский: AC-3, 48.0 KHz, 6 ch, 640 Kbps, CBR
Сэмпл: Скачать

MediaInfo:

Общее
Уникальный идентификатор : 233991261035952119584048858963838813532 (0xB00913DFE9FE4574A62382E40834C55C)
Полное имя : D:\Фильмы 3D\Transformery.Epoha.istrebleniya.2014.BDRip.1080p.3D-Half-SBS.mkv
Формат : Matroska
Версия формата : Version 4 / Version 2
Размер файла : 11,4 Гбайт
Продолжительность : 2 ч. 45 м.
Общий поток : 9859 Кбит/сек
Дата кодирования : UTC 2014-09-19 23:57:03
Программа кодирования : mkvmerge v7.2.0 ('On Every Street') 64bit built on Sep 13 2014 15:52:10
Библиотека кодирования : libebml v1.3.0 + libmatroska v1.4.1
DURATION : 02:45:07.264000000
NUMBER_OF_FRAMES : 309602
NUMBER_OF_BYTES : 475548672
_STATISTICS_WRITING_APP : mkvmerge v7.2.0 ('On Every Street') 64bit built on Sep 13 2014 15:52:10
_STATISTICS_WRITING_DATE_UTC : 2014-09-19 23:57:03
_STATISTICS_TAGS : BPS DURATION NUMBER_OF_FRAMES NUMBER_OF_BYTES
Attachment : Yes
Видео
Идентификатор : 1
Формат : AVC
Формат/Информация : Advanced Video Codec
Профиль формата : High@L4.1
Параметр CABAC формата : Да
Параметр ReFrames формата : 4 кадра
Идентификатор кодека : V_MPEG4/ISO/AVC
Продолжительность : 2 ч. 45 м.
Битрейт : 8835 Кбит/сек
Ширина : 1920 пикселей
Высота : 1016 пикселей
Соотношение сторон : 1,890
Режим частоты кадров : Постоянный
Частота кадров : 23,976 кадра/сек
Цветовое пространство : YUV
Субдискретизация насыщенности : 4:2:0
Битовая глубина : 8 бит
Тип развёртки : Прогрессивная
Бит/(Пиксели*Кадры) : 0.189
Размер потока : 9,96 Гбайт (88%)
Библиотека кодирования : x264 core 142 r2479 dd79a61
Настройки программы : cabac=1 / ref=4 / deblock=1:0:0 / analyse=0x3:0x133 / me=umh / subme=7 / psy=1 / psy_rd=1.00:0.00 / mixed_ref=1 / me_range=16 / chroma_me=1 / trellis=1 / 8x8dct=1 / cqm=0 / deadzone=21,11 / fast_pskip=0 / chroma_qp_offset=-2 / threads=18 / lookahead_threads=3 / sliced_threads=0 / nr=0 / decimate=1 / interlaced=0 / bluray_compat=0 / constrained_intra=0 / bframes=3 / b_pyramid=2 / b_adapt=1 / b_bias=0 / direct=1 / weightb=1 / open_gop=0 / weightp=2 / keyint=250 / keyint_min=23 / scenecut=40 / intra_refresh=0 / rc_lookahead=40 / rc=2pass / mbtree=1 / bitrate=8835 / ratetol=1.0 / qcomp=0.60 / qpmin=0 / qpmax=69 / qpstep=4 / cplxblur=20.0 / qblur=0.5 / ip_ratio=1.40 / aq=1:1.00
Язык : English
Default : Да
Forced : Нет
DURATION : 02:45:07.314000000
NUMBER_OF_FRAMES : 237538
NUMBER_OF_BYTES : 10937520568
_STATISTICS_WRITING_APP : mkvmerge v7.2.0 ('On Every Street') 64bit built on Sep 13 2014 15:52:10
_STATISTICS_WRITING_DATE_UTC : 2014-09-19 23:57:03
_STATISTICS_TAGS : BPS DURATION NUMBER_OF_FRAMES NUMBER_OF_BYTES
Аудио #1
Идентификатор : 2
Формат : AC-3
Формат/Информация : Audio Coding 3
Расширение режима : CM (complete main)
Параметр Endianness формата : Big
Идентификатор кодека : A_AC3
Продолжительность : 2 ч. 45 м.
Вид битрейта : Постоянный
Битрейт : 384 Кбит/сек
Каналы : 2 канала
Расположение каналов : Front: L R
Частота : 48,0 КГц
Битовая глубина : 16 бит
Метод сжатия : С потерями
Размер потока : 454 Мбайт (4%)
Заголовок : AC3 / 2.0 / 384 Kbps / LINE
Язык : Russian
Default : Да
Forced : Нет
Аудио #2
Идентификатор : 3
Формат : AC-3
Формат/Информация : Audio Coding 3
Расширение режима : CM (complete main)
Параметр Endianness формата : Big
Идентификатор кодека : A_AC3
Продолжительность : 2 ч. 45 м.
Вид битрейта : Постоянный
Битрейт : 640 Кбит/сек
Каналы : 6 каналов
Расположение каналов : Front: L C R, Side: L R, LFE
Частота : 48,0 КГц
Битовая глубина : 16 бит
Метод сжатия : С потерями
Размер потока : 756 Мбайт (6%)
Заголовок : AC3 / 5.1 / 640 Kbps / Original
Язык : English
Default : Нет
Forced : Нет
Текст
Идентификатор : 4
Формат : UTF-8
Идентификатор кодека : S_TEXT/UTF8
Идентификатор кодека/Информация : UTF-8 Plain Text
Заголовок : English-Forced
Язык : English
Default : Да
Forced : Да
Меню
00:00:00.000 : en:00:00:00.000
00:06:51.578 : en:00:06:51.578
00:14:33.581 : en:00:14:33.581
00:21:37.463 : en:00:21:37.463
00:30:13.395 : en:00:30:13.395
00:38:45.990 : en:00:38:45.990
00:46:08.057 : en:00:46:08.057
00:51:39.513 : en:00:51:39.513
00:59:09.337 : en:00:59:09.337
01:07:48.648 : en:01:07:48.648
01:15:14.552 : en:01:15:14.552
01:23:25.292 : en:01:23:25.292
01:29:14.724 : en:01:29:14.724
01:37:16.956 : en:01:37:16.956
01:44:35.436 : en:01:44:35.436
01:51:25.053 : en:01:51:25.053
01:57:47.936 : en:01:57:47.936
02:04:48.481 : en:02:04:48.481
02:12:35.865 : en:02:12:35.865
02:21:04.206 : en:02:21:04.206
02:28:48.670 : en:02:28:48.670
02:37:09.629 : en:02:37:09.629

Avdump:

File: D:\Фильмы 3D\Transformery.Epoha.istrebleniya.2014.BDRip.1080p.3D-Half-SBS.mkv
Duration: 02:45:07 (9907.33)
Track #1: video
lang: Unknown (1)
codc: V_MPEG4/ISO/AVC -> H264/AVC (22)
reso: 1920x1016 -> Unknown (aka not common)
fram: 23.976 fps
rate: 8832 kbps (8831.91)
dura: 02:45:07 (9907.27)
size: 10.19 GB (10937520568)
Track #2: audio (AC3 / 2.0 / 384 Kbps / LINE)
lang: rus -> Russian (15)
codc: A_AC3 -> AC3 (2)
chan: 2 -> Stereo
samp: 48000 Hz
rate: 384 kbps (384.04)
dura: 02:45:07 (9907.07)
size: 453.56 MB (475590477)
Track #3: audio (AC3 / 5.1 / 640 Kbps / Original)
lang: Unknown (1)
codc: A_AC3 -> AC3 (2)
chan: 6 -> 5.1 Surround
samp: 48000 Hz
rate: 640 kbps (640.05)
dura: 02:45:07 (9907.07)
size: 755.91 MB (792628052)
Track #4: subtitles (English-Forced)
lang: Unknown (1)
type: S_TEXT/UTF8 -> SRT (3)
size: 113.00 B (113)
Sizes: (check sanity)
disk: 11.37 GB (12209723999)
atts: 1.27 MB (1326682)
trac: 3.37 GB (3615804618) [based on track size]
bitr: 11.37 GB (12205763300) [based on bitrate]
tdif: 8.00 GB (8592592699) 70.37%
bdif: 2.51 MB (2634016) 0.02%
Скриншоты:

[Цитировать]



Показать сообщения:    

Текущее время: 10-Дек 00:10

Часовой пояс: UTC + 3


Вы не можете начинать темы
Вы не можете отвечать на сообщения
Вы не можете редактировать свои сообщения
Вы не можете удалять свои сообщения
Вы не можете голосовать в опросах
Вы не можете прикреплять файлы к сообщениям
Вы не можете скачивать файлы

!ВНИМАНИЕ!
Сайт не предоставляет электронные версии произведений, а занимается лишь коллекционированием и каталогизацией ссылок, присылаемых и публикуемых на форуме нашими читателями. Если вы являетесь правообладателем какого-либо представленного материала и не желаете, чтобы ссылка на него находилась в нашем каталоге, свяжитесь с нами, и мы незамедлительно удалим ее. Файлы для обмена на трекере предоставлены пользователями сайта, и администрация не несет ответственности за их содержание. Просьба не заливать файлы, защищенные авторскими правами, а также файлы нелегального содержания!