[ Сегодня идет свободное скачивание без начисления Download ]


Статистика раздачи
Нет
 
   
 
Top  
 
 
-Писака / The Scribbler (2014) WEB-DL- Год выпуска: 2014
Производство: США | Caliber Media Company, New Artists Alliance
Жанр: Триллер
Перевод: Одноголосый закадровый, любительский
Озвучка / Автор перевода: Алексей Толмачев
Субтитры: Вшитые отключаемые
Язык субтитров: Английский
Дата мировой премьеры: 1 марта 2014
Режиссер: Джон Суитц
Продюсер: Гэбриел Кауэн, Кен Ф. Левин, Дэвид Е. Грум
Актеры: Кэти Кэссиди, Гаррет Дилахант, Мишель Трахтенберг, Майкл Империоли, Джина Гершон, Элайза Душку, Саша Грей, Билли Кэмпбелл
Описание фильма:
События фильма разворачиваются вокруг молодой женщины, только что выписавшейся из психбольницы. Ее направляют в специальный медицинский корпус, который должен завершить лечение и подготовить девушку к нормальной жизни в социуме. Там она должна избавиться от своих побочных личностей, из-за которых загремела в психушку. После ее прибытия персонал отдела начинает вымирать с огромной скоростью, при достаточно необычных обстоятельствах…

Продолжительность: 01:29:27
Качество видео: WEB-DL [profile LQ]
Видео: MPEG-4 AVC/H.264, 1280x544 (2.35:1), 23,976 fps, ~3564 kbps avg, 0.213 bit/pixel
Аудио №1: 48 kHz, MP3, 2 ch, (Front: L, R), ~192 kbps avg | Русский VO
Аудио №2: 48 kHz, AC-3, 6 ch, (Front: L C R, Side: L R), LFE ~384 kbps avg | Английский (оригинал)
Сэмпл: Скачать

MediaInfo

General
Unique ID                      : 248356594604684805774551460648520167635 (0xBAD7BD80996F2550962DD678F01EB0D3)
Complete name                  : D:\фильмы\Pisaka.2014.WEB.DL.720p.mkv
Format                         : Matroska
Format version                 : Version 4 / Version 2
File size                      : 2.64 GiB
Duration                       : 1h 29mn
Overall bit rate               : 4 224 Kbps
Encoded date                   : UTC 2014-09-22 11:37:42
Writing application            : mkvmerge v6.1.0 ('Old Devil') built on Mar  4 2013 09:10:42
Writing library                : libebml v1.3.0 + libmatroska v1.4.0
Video
ID                             : 1
Format                         : AVC
Format/Info                    : Advanced Video Codec
Format profile                 : [url=mailto:High@L4.1]High@L4.1[/url]
Format settings, CABAC         : Yes
Format settings, ReFrames      : 4 frames
Codec ID                       : V_MPEG4/ISO/AVC
Duration                       : 1h 29mn
Bit rate                       : 3 564 Kbps
Nominal bit rate               : 3 761 Kbps
Width                          : 1 280 pixels
Height                         : 544 pixels
Display aspect ratio           : 2.35:1
Frame rate mode                : Constant
Frame rate                     : 23.976 fps
Color space                    : YUV
Chroma subsampling             : 4:2:0
Bit depth                      : 8 bits
Scan type                      : Progressive
Bits/(Pixel*Frame)             : 0.213
Stream size                    : 2.23 GiB (84%)
Writing library                : x264 core 130 r2273 b3065e6
Encoding settings              : cabac=1 / ref=1 / deblock=1:0:0 / analyse=0x3:0x113 / me=hex / subme=2 / psy=1 / psy_rd=1.00:0.00 / mixed_ref=0 / me_range=16 / chroma_me=1 / trellis=0 / 8x8dct=1 / cqm=0 / deadzone=21,11 / fast_pskip=1 / chroma_qp_offset=0 / threads=48 / lookahead_threads=4 / sliced_threads=0 / nr=0 / decimate=1 / interlaced=0 / bluray_compat=0 / constrained_intra=0 / bframes=3 / b_pyramid=2 / b_adapt=1 / b_bias=0 / direct=1 / weightb=1 / open_gop=0 / weightp=1 / keyint=240 / keyint_min=24 / scenecut=40 / intra_refresh=0 / rc_lookahead=10 / rc=abr / mbtree=1 / bitrate=3761 / ratetol=1.0 / qcomp=0.60 / qpmin=0 / qpmax=69 / qpstep=4 / vbv_maxrate=62500 / vbv_bufsize=78125 / nal_hrd=none / ip_ratio=1.40 / aq=1:1.00
Language                       : English
Default                        : Yes
Forced                         : No
Color primaries                : BT.709
Transfer characteristics       : BT.709
Matrix coefficients            : BT.709
Audio #1
ID                             : 2
Format                         : MPEG Audio
Format version                 : Version 1
Format profile                 : Layer 3
Mode                           : Joint stereo
Mode extension                 : MS Stereo
Codec ID                       : A_MPEG/L3
Codec ID/Hint                  : MP3
Duration                       : 1h 29mn
Bit rate mode                  : Constant
Bit rate                       : 192 Kbps
Channel(s)                     : 2 channels
Sampling rate                  : 48.0 KHz
Compression mode               : Lossy
Stream size                    : 123 MiB (5%)
Language                       : Russian
Default                        : Yes
Forced                         : No
Audio #2
ID                             : 3
Format                         : AC-3
Format/Info                    : Audio Coding 3
Mode extension                 : CM (complete main)
Format settings, Endianness    : Big
Codec ID                       : A_AC3
Duration                       : 1h 29mn
Bit rate mode                  : Constant
Bit rate                       : 384 Kbps
Channel(s)                     : 6 channels
Channel positions              : Front: L C R, Side: L R, LFE
Sampling rate                  : 48.0 KHz
Bit depth                      : 16 bits
Compression mode               : Lossy
Stream size                    : 246 MiB (9%)
Language                       : English
Default                        : No
Forced                         : No
Text
ID                             : 4
Format                         : UTF-8
Codec ID                       : S_TEXT/UTF8
Codec ID/Info                  : UTF-8 Plain Text
Language                       : English
Default                        : No
Forced                         : No
Menu
00:00:00.000                   : en:Chapter 1
00:05:20.070                   : en:Chapter 2
00:10:18.034                   : en:Chapter 3
00:17:35.055                   : en:Chapter 4
00:23:10.015                   : en:Chapter 5
00:26:52.070                   : en:Chapter 6
00:30:03.053                   : en:Chapter 7
00:37:14.025                   : en:Chapter 8
00:40:06.072                   : en:Chapter 9
00:43:36.074                   : en:Chapter 10
00:50:40.040                   : en:Chapter 11
00:56:43.069                   : en:Chapter 12
01:05:03.028                   : en:Chapter 13
01:13:33.079                   : en:Chapter 14
01:19:23.013                   : en:Chapter 15
01:25:29.045                   : en:Chapter 16
Скриншоты:

Время раздачи: 10:00 - 24:00

[Цитировать]



Показать сообщения:    

Текущее время: 08-Дек 09:04

Часовой пояс: UTC + 3


Вы не можете начинать темы
Вы не можете отвечать на сообщения
Вы не можете редактировать свои сообщения
Вы не можете удалять свои сообщения
Вы не можете голосовать в опросах
Вы не можете прикреплять файлы к сообщениям
Вы не можете скачивать файлы

!ВНИМАНИЕ!
Сайт не предоставляет электронные версии произведений, а занимается лишь коллекционированием и каталогизацией ссылок, присылаемых и публикуемых на форуме нашими читателями. Если вы являетесь правообладателем какого-либо представленного материала и не желаете, чтобы ссылка на него находилась в нашем каталоге, свяжитесь с нами, и мы незамедлительно удалим ее. Файлы для обмена на трекере предоставлены пользователями сайта, и администрация не несет ответственности за их содержание. Просьба не заливать файлы, защищенные авторскими правами, а также файлы нелегального содержания!