[ Сегодня идет свободное скачивание без начисления Download ]


Статистика раздачи
Нет
 
   
 
Top  
 
 
-Люди Икс: Дни минувшего будущего / X-Men: Days of Future Past (2014) DVDRip«His past. Our future»- Год выпуска: 2014
Производство: США, Великобритания.
Жанр: Фантастика, Боевик, Триллер.
Режиссер: Брайан Сингер.
Продюсер: Саймон Кинберг, Хатч Паркер, Лорен Шулер Доннер.
Актеры: Хью Джекман, Джеймс МакЭвой, Майкл Фассбендер, Дженнифер Лоуренс, Холли Берри, Николас Холт, Анна Пэкуин, Эллен Пейдж, Питер Динклэйдж, Шон Эшмор.
Описание фильма:
В недалёком будущем мутанты близки к истреблению роботами-охотниками на мутантов Стражами. Единственная надежда для мутантов выжить — предотвратить череду роковых событий, приведших к появлению Стражей. С помощью своих способностей, Китти Прайд перемещает сознание Росомахи в его молодое тело в 1973 год. В прошлом всё оказывается не так радужно: молодой Профессор Икс окончательно разочарован в своих идеях, Магнето содержится в тюрьме глубоко под землёй, а человечество не знает как реагировать на широкое появление мутантов…
Перевод: Дублированный [Лицензия]
Субтитры: Отсутствуют

Дата мировой премьеры: 10 мая 2014
Дата российской премьеры: 22 мая 2014, «Двадцатый Век Фокс СНГ»
Дата выхода DVD релиза: 2 октября 2014, «Двадцатый Век Фокс СНГ»
Продолжительность: 02:06:13
Качество видео: DVDRip
Видеокодек: Xvid
Битрейт видео: ~1936 Kbps
Размер кадра: 720x304
Аудиокодек: AC3 5.1
Битрейт аудио: 384
Сэмпл: Скачать

MI

Общее
Полное имя                               : L:\nnm-club(Раздачи)\Фильмы\Ljudi.X.2014.XviD.DVDRip..avi
Формат                                   : AVI
Формат/Информация                        : Audio Video Interleave
Профиль формата                          : OpenDML
Размер файла                             : 2,06 Гбайт
Продолжительность                        : 2 ч. 6 м.
Общий поток                              : 2333 Кбит/сек
Программа кодирования                    : VirtualDubModRus 1.5.10.2 (build 2542/release)
Библиотека кодирования                   : VirtualDubMod build 2542/release
Видео
Идентификатор                            : 0
Формат                                   : MPEG-4 Visual
Профиль формата                          : Advanced Simple@L5
Параметр BVOP формата                    : 2
Параметр QPel формата                    : Нет
Параметр GMC формата                     : Без точки перехода
Параметр матрицы формата                 : Default (MPEG)
Идентификатор кодека                     : XVID
Идентификатор кодека/Подсказка           : XviD
Продолжительность                        : 2 ч. 6 м.
Битрейт                                  : 1936 Кбит/сек
Ширина                                   : 720 пикселей
Высота                                   : 304 пикселя
Соотношение сторон                       : 2,35:1
Частота кадров                           : 25,000 кадров/сек
Цветовое пространство                    : YUV
Субдискретизация насыщенности            : 4:2:0
Битовая глубина                          : 8 бит
Тип развёртки                            : Прогрессивная
Метод сжатия                             : С потерями
Бит/(Пиксели*Кадры)                      : 0.354
Размер потока                            : 1,71 Гбайт (83%)
Библиотека кодирования                   : XviD 1.2.1 (UTC 2008-12-04)
Аудио
Идентификатор                            : 1
Формат                                   : AC-3
Формат/Информация                        : Audio Coding 3
Расширение режима                        : CM (complete main)
Параметр Endianness формата              : Big
Идентификатор кодека                     : 2000
Продолжительность                        : 2 ч. 6 м.
Вид битрейта                             : Постоянный
Битрейт                                  : 384 Кбит/сек
Каналы                                   : 6 каналов
Расположение каналов                     : Front: L C R, Side: L R, LFE
Частота                                  : 48,0 КГц
Битовая глубина                          : 16 бит
Метод сжатия                             : С потерями
Размер потока                            : 347 Мбайт (16%)
Выравнивание                             : Разделение по промежуткам
Продолжительность промежутка             : 40  мс. (1,00 видеокадр)
Время предзагрузки промежутка            : 500  мс.
Скриншоты:
Время раздачи: Пн-Пт с 18:00 до 22:00, Сб-Вс с 09:00 до 23:30

[Цитировать]



Показать сообщения:    

Текущее время: 11-Дек 05:14

Часовой пояс: UTC + 3


Вы не можете начинать темы
Вы не можете отвечать на сообщения
Вы не можете редактировать свои сообщения
Вы не можете удалять свои сообщения
Вы не можете голосовать в опросах
Вы не можете прикреплять файлы к сообщениям
Вы не можете скачивать файлы

!ВНИМАНИЕ!
Сайт не предоставляет электронные версии произведений, а занимается лишь коллекционированием и каталогизацией ссылок, присылаемых и публикуемых на форуме нашими читателями. Если вы являетесь правообладателем какого-либо представленного материала и не желаете, чтобы ссылка на него находилась в нашем каталоге, свяжитесь с нами, и мы незамедлительно удалим ее. Файлы для обмена на трекере предоставлены пользователями сайта, и администрация не несет ответственности за их содержание. Просьба не заливать файлы, защищенные авторскими правами, а также файлы нелегального содержания!