[ Сегодня идет свободное скачивание без начисления Download ]


Статистика раздачи
Нет
 
   
 
Top  
 
 
-Универ. Новая общага (2014) WEB-DLRip [H.264/720p-LQ] (сезон 7, серии 1-17 из ?? (121-137 из ??)) (обновляемая)- Год выпуска: 2014
Жанр: Комедия, Семейный
Производство: ТНТ, Комеди Клаб Продакшн
Режиссер: Сергей Басин
Продюсеры: Александр Дулерайн, Вячеслав Дусмухаметов, Семен Слепаков
Актеры: Александр Стекольников, Арарат Кещян, Станислав Ярушин, Анна Кузина, Настасья Самбурская, Анна Хилькевич, Елена Валюшкина, Владимир Фекленко, Андрей Лебедев, Сергей Пиоро, Наталья Рудова, Сергей Гусенков, Павел Фартуков, Мария Беляева, Иван Шмаков, Павел Конек, Анна Карышева, Дария Тюрина, Артурс Пуполс, Константин Шелягин, Ирина Темичева, Наталья Оленина, Мария Бокова (II), Илана Исакжанова, Александра Булычёва, Эдуард Айткулов, Михаил Люлинецкий, Руслан Щедрин, Анна Зарянкина и др.
Описание фильма:
Канал ТНТ открывает новый сезон давно всеми полюбившегося сериала Универ. Мы опять встретим новый учебный год с давно полюбившимися героями. Только на этот раз в всем знакомый блок въезжает новый сосед - маменькин сынок, Будэйко Валентин Григорьевич. Валентин - это новая яркая личность. Он полностью поглощен изучением химии, девственник в 22 года, и тот факт что он проживает в одном блоке с девушками сильно на него влияет. Не обходится без очередных подколов Майкла и Антона, да и их соседки Кристина, Маша, Яна будут вести свою обычную общажную жизнь. Будет любопытно взглянуть как поминается мировоззрение Валентина под влиянием этой неординарной компании. Так что наслаждаемся просмотром и переживаем за наших героев в новом сезоне.

MediaInfo

Общее
Уникальный идентификатор : 240639765730360652712022340183799616747 (0xB5098876D1D0CD43B74243B32537D4EB)
Полное имя : E:\Раздачи\Univer.07.Novaya.obschaga.2014.WEB-DL.(720p)\Univer.07.Novaya.obschaga.(01.seriya).2014.WEB-DL.(720p).mkv
Формат : Matroska
Версия формата : Version 2
Размер файла : 600 Мбайт
Продолжительность : 24 м.
Общий поток : 3378 Кбит/сек
Название фильма : Univer.07.Novaya.obschaga.(01.seriya).2014.WEB-DL.(720p).MediaClub
Дата кодирования : UTC 2014-09-01 10:21:06
Программа кодирования : mkvmerge v5.8.0 ('No Sleep / Pillow') built on Sep 2 2012 15:37:04
Библиотека кодирования : libebml v1.2.3 + libmatroska v1.3.0
Видео
Идентификатор : 1
Формат : AVC
Формат/Информация : Advanced Video Codec
Профиль формата : High@L4.0
Параметр CABAC формата : Да
Параметр ReFrames формата : 8 кадров
Идентификатор кодека : V_MPEG4/ISO/AVC
Продолжительность : 24 м.
Битрейт : 3119 Кбит/сек
Ширина : 1280 пикселей
Высота : 720 пикселей
Соотношение сторон : 16:9
Режим частоты кадров : Постоянный
Частота кадров : 25,000 кадров/сек
Цветовое пространство : YUV
Субдискретизация насыщенности : 4:2:0
Битовая глубина : 8 бит
Тип развёртки : Прогрессивная
Бит/(Пиксели*Кадры) : 0.135
Размер потока : 554 Мбайт (92%)
Библиотека кодирования : x264 core 125
Настройки программы : cabac=1 / ref=8 / deblock=1:-1:-1 / analyse=0x3:0x133 / me=umh / subme=9 / psy=1 / psy_rd=1.00:0.15 / mixed_ref=1 / me_range=16 / chroma_me=1 / trellis=2 / 8x8dct=1 / cqm=0 / deadzone=21,11 / fast_pskip=1 / chroma_qp_offset=-3 / threads=18 / lookahead_threads=3 / sliced_threads=0 / nr=0 / decimate=1 / interlaced=0 / bluray_compat=0 / constrained_intra=0 / bframes=3 / b_pyramid=2 / b_adapt=2 / b_bias=0 / direct=3 / weightb=1 / open_gop=0 / weightp=2 / keyint=100 / keyint_min=10 / scenecut=40 / intra_refresh=0 / rc_lookahead=60 / rc=crf / mbtree=1 / crf=17.0 / qcomp=0.60 / qpmin=0 / qpmax=69 / qpstep=4 / vbv_maxrate=3600 / vbv_bufsize=3600 / crf_max=0.0 / nal_hrd=none / ip_ratio=1.40 / aq=1:1.00
Default : Да
Forced : Да
Аудио
Идентификатор : 2
Формат : AC-3
Формат/Информация : Audio Coding 3
Расширение режима : CM (complete main)
Параметр Endianness формата : Big
Идентификатор кодека : A_AC3
Продолжительность : 24 м.
Вид битрейта : Постоянный
Битрейт : 192 Кбит/сек
Каналы : 2 канала
Расположение каналов : Front: L R
Частота : 44,1 КГц
Битовая глубина : 16 бит
Метод сжатия : С потерями
Задержка видео : -80 мс.
Размер потока : 34,1 Мбайт (6%)
Язык : Russian
Default : Да
Forced : Да

Дополнительная информация:

Внимание! Раздача ведётся путём добавления новых серий; при каждом добавлении создётся новый торрент. Чтобы начать докачку новой серии, пользователям необходимо сделать следующее:
(1) остановить скачивание,
(2) удалить старый торрент у себя из клиента (старые серии удалять не надо),
(3) скачать новый торрент и запустить его у себя в клиенте вместо старого, при этом указать клиенту путь в старую папку куда и должно происходить скачивание новых серий.
Ваш клиент при этом должен произвести хеширование (проверку) старой папки (если не производит сам - помогите ему сделать это), и будет докачивать только те серии которых у вас ещё нет. Старые серии при этом не удаляются, а продолжают раздаваться!
Eсли вы уже удалили старые серии, то предотвратить повторную закачку старых серий можно, отжав галочку в соответсвующих местах при запуске нового торрента. По возможности, желательно не удалять старые серии как можно дольше чтобы релизёр не столько продолжал раздавать старые серии, а смог сконцентрироваться на новых.
Продолжительность: ~00:25:00 серия
Качество видео: WEB-DL
Видеокодек: MPEG-4 AVC/H.264
Битрейт видео: ~3000 Кбит/с
Размер кадра: 1280x720
Аудиокодек: AC3 2.0
Битрейт аудио: 192 Кбит/с
Скриншоты:

[Цитировать]

Топик был перенесен из форума Новинки кинопроката в форум Универ
Henkok



Показать сообщения:    

Текущее время: 08-Дек 21:11

Часовой пояс: UTC + 3


Вы не можете начинать темы
Вы не можете отвечать на сообщения
Вы не можете редактировать свои сообщения
Вы не можете удалять свои сообщения
Вы не можете голосовать в опросах
Вы не можете прикреплять файлы к сообщениям
Вы не можете скачивать файлы

!ВНИМАНИЕ!
Сайт не предоставляет электронные версии произведений, а занимается лишь коллекционированием и каталогизацией ссылок, присылаемых и публикуемых на форуме нашими читателями. Если вы являетесь правообладателем какого-либо представленного материала и не желаете, чтобы ссылка на него находилась в нашем каталоге, свяжитесь с нами, и мы незамедлительно удалим ее. Файлы для обмена на трекере предоставлены пользователями сайта, и администрация не несет ответственности за их содержание. Просьба не заливать файлы, защищенные авторскими правами, а также файлы нелегального содержания!