[ Сегодня идет свободное скачивание без начисления Download ]


Статистика раздачи
Нет
 
   
 
Top  
 
 
-Грань будущего / Edge of Tomorrow (2014) BDRip [1080p] 3D [Горизонтальная анаморфная стереопара]- Год выпуска: 2014
Производство: США, Австралия, Warner Bros., Village Roadshow Pictures
Жанр: Фантастика, боевик
Описание фильма:
В недалёком будущем раса инопланетян вторгается на Землю. Никакая армия в мире не может противостоять им. Майор Уильям Кейдж умирает в бою, но случается невозможное — он оказывается во временной петле. Раз за разом он попадает в один и тот же бой, сражается и умирает… снова и снова. И каждое повторяющееся сражение приближает его к разгадке того, как победить врага.
Режиссер: Даг Лайман
Продюсер: Джейсон Хоффс, Грегори Джейкобс, Том Лассалли
Актеры: Том Круз, Эмили Блант, Брендан Глисон, Билл Пэкстон, Джонас Армстронг, Тони Вэй, Кик Гарри, Франц Драмех, Драгомир Мрсич, Шарлотта Райли
Перевод: Дублированный
Субтитры: Вшитые отключаемые
Язык субтитров: Русский (forced, full), украинский, английский (full, SDH, SDH-colored)

Дата мировой премьеры: 28 мая 2014
Дата российской премьеры: 5 июня 2014, «Каро-Премьер»
Дата выхода DVD/Blu-Ray релиза: 2 октября 2014, «CP Дистрибуция»
Продолжительность: 01:53:29
Качество видео: BDRip [1080p]
Видеокодек: MPEG-4 AVC/H.264
Битрейт видео: ~11.5 Mbps
Размер кадра: 1920x1080
Аудио #1: Русский: AC-3, 48.0 KHz, 6 ch, 640 Kbps, CBR - (Blu-ray CEE)
Аудио #2: Русский: DTS, 48.0 KHz, 6 ch, 1510 Kbps, CBR - (одноголосый закадровый, Д. Есарев)
Аудио #3: Украинский: AC-3, 48.0 KHz, 6 ch, 640 Kbps, CBR - (Blu-ray CEE)
Аудио #4: Английский: DTS, 48.0 KHz, 6 ch, 1510 Kbps, CBR - (оригинал)
Сэмпл: Скачать

MediaInfo:

Общее
Уникальный идентификатор : 235239748689394850581898622058786408950 (0xB0F987118571EBF28020E0D7A07F49F6)
Полное имя : D:\Фильмы 3D\Gran.buduschego.2014.BDRip.1080p.3D-Half-SBS.mkv
Формат : Matroska
Версия формата : Version 4 / Version 2
Размер файла : 12,8 Гбайт
Продолжительность : 1 ч. 53 м.
Общий поток : 16,1 Мбит/сек
Дата кодирования : UTC 2014-09-27 02:39:49
Программа кодирования : mkvmerge v7.2.0 ('On Every Street') 64bit built on Sep 13 2014 15:52:10
Библиотека кодирования : libebml v1.3.0 + libmatroska v1.4.1
DURATION : 01:53:29.461000000
NUMBER_OF_FRAMES : 638387
NUMBER_OF_BYTES : 1285073031
_STATISTICS_WRITING_APP : mkvmerge v7.2.0 ('On Every Street') 64bit built on Sep 13 2014 15:52:10
_STATISTICS_WRITING_DATE_UTC : 2014-09-27 02:39:49
_STATISTICS_TAGS : BPS DURATION NUMBER_OF_FRAMES NUMBER_OF_BYTES
Attachment : Yes
Видео
Идентификатор : 1
Формат : AVC
Формат/Информация : Advanced Video Codec
Профиль формата : [email protected]
Параметр CABAC формата : Да
Параметр ReFrames формата : 4 кадра
Идентификатор кодека : V_MPEG4/ISO/AVC
Продолжительность : 1 ч. 53 м.
Битрейт : 11,5 Мбит/сек
Ширина : 1920 пикселей
Высота : 1080 пикселей
Соотношение сторон : 16:9
Режим частоты кадров : Постоянный
Частота кадров : 23,976 кадра/сек
Цветовое пространство : YUV
Субдискретизация насыщенности : 4:2:0
Битовая глубина : 8 бит
Тип развёртки : Прогрессивная
Бит/(Пиксели*Кадры) : 0.231
Размер потока : 9,10 Гбайт (71%)
Библиотека кодирования : x264 core 133 r2334 a3ac64b
Настройки программы : cabac=1 / ref=4 / deblock=1:-3:-3 / analyse=0x3:0x133 / me=umh / subme=10 / psy=1 / psy_rd=0.90:0.00 / mixed_ref=1 / me_range=24 / chroma_me=1 / trellis=2 / 8x8dct=1 / cqm=0 / deadzone=21,11 / fast_pskip=0 / chroma_qp_offset=-2 / threads=6 / lookahead_threads=1 / sliced_threads=0 / nr=0 / decimate=0 / interlaced=0 / bluray_compat=0 / constrained_intra=0 / bframes=8 / b_pyramid=2 / b_adapt=2 / b_bias=0 / direct=3 / weightb=1 / open_gop=0 / weightp=2 / keyint=250 / keyint_min=23 / scenecut=40 / intra_refresh=0 / rc=crf / mbtree=0 / crf=17.7 / qcomp=0.65 / qpmin=0 / qpmax=69 / qpstep=4 / ip_ratio=1.30 / pb_ratio=1.20 / aq=1:0.80 / zones=152,280,crf=15.7/357,530,crf=15.7/531,600,crf=15.7/601,752,crf=15.7/778,1006,crf=13.7/1404,1562,crf=15.7/2340,2390,crf=16.7/2391,2452,crf=15.7/2504,2563,crf=16.7/2564,2617,crf=15.7/2704,2850,crf=16.7/2851,2953,crf=13.7/2954,3000,crf=11.7/3001,3132,crf=15.7/3654,3749,crf=15.7/19996,20138,crf=17.8/77833,77975,crf=17.5/91778,92127,crf=17.5/96146,96330,crf=15.7/105558,105851,crf=17.5/105852,106140,crf=17.2/106141,108577,crf=17.2/117773,118830,crf=17.5/119528,119612,crf=17.5/119965,120014,crf=17.5/122653,123359,crf=17.5/126352,126603,crf=17.2/126960,127075,crf=17.2/128496,128731,crf=17.2/129151,129272,crf=17.5/130107,130790,crf=17.5/130791,130951,crf=17.2/130952,148150,crf=17.5/152156,155060,crf=17.5/163104,163220,crf=14.7
Язык : English
Default : Да
Forced : Нет
DURATION : 01:53:29.428000000
NUMBER_OF_FRAMES : 163263
NUMBER_OF_BYTES : 10036649607
_STATISTICS_WRITING_APP : mkvmerge v7.2.0 ('On Every Street') 64bit built on Sep 13 2014 15:52:10
_STATISTICS_WRITING_DATE_UTC : 2014-09-27 02:39:49
_STATISTICS_TAGS : BPS DURATION NUMBER_OF_FRAMES NUMBER_OF_BYTES
Аудио #1
Идентификатор : 2
Формат : AC-3
Формат/Информация : Audio Coding 3
Расширение режима : CM (complete main)
Параметр Endianness формата : Big
Идентификатор кодека : A_AC3
Продолжительность : 1 ч. 53 м.
Вид битрейта : Постоянный
Битрейт : 640 Кбит/сек
Каналы : 6 каналов
Расположение каналов : Front: L C R, Side: L R, LFE
Частота : 48,0 КГц
Битовая глубина : 16 бит
Метод сжатия : С потерями
Размер потока : 520 Мбайт (4%)
Заголовок : AC3 / 5.1 / 640 kbps / Licence CCE
Язык : Russian
Default : Да
Forced : Нет
Аудио #2
Идентификатор : 3
Формат : DTS
Формат/Информация : Digital Theater Systems
Режим : 16
Параметр Endianness формата : Big
Идентификатор кодека : A_DTS
Продолжительность : 1 ч. 53 м.
Вид битрейта : Постоянный
Битрейт : 1510 Кбит/сек
Каналы : 6 каналов
Расположение каналов : Front: L C R, Side: L R, LFE
Частота : 48,0 КГц
Битовая глубина : 24 бит
Метод сжатия : С потерями
Размер потока : 1,20 Гбайт (9%)
Заголовок : DTS / 5.1 / 1536 kbps / Dmitriy Esarev
Язык : Russian
Default : Нет
Forced : Нет
Аудио #3
Идентификатор : 4
Формат : AC-3
Формат/Информация : Audio Coding 3
Расширение режима : CM (complete main)
Параметр Endianness формата : Big
Идентификатор кодека : A_AC3
Продолжительность : 1 ч. 53 м.
Вид битрейта : Постоянный
Битрейт : 640 Кбит/сек
Каналы : 6 каналов
Расположение каналов : Front: L C R, Side: L R, LFE
Частота : 48,0 КГц
Битовая глубина : 16 бит
Метод сжатия : С потерями
Размер потока : 520 Мбайт (4%)
Заголовок : AC3 / 5.1 / 640 kbps / Licence CCE
Язык : Ukrainian
Default : Нет
Forced : Нет
Аудио #4
Идентификатор : 5
Формат : DTS
Формат/Информация : Digital Theater Systems
Режим : 16
Параметр Endianness формата : Big
Идентификатор кодека : A_DTS
Продолжительность : 1 ч. 53 м.
Вид битрейта : Постоянный
Битрейт : 1509 Кбит/сек
Каналы : 6 каналов
Расположение каналов : Front: L C R, Side: L R, LFE
Частота : 48,0 КГц
Битовая глубина : 24 бит
Метод сжатия : С потерями
Задержка видео : 11 мс.
Размер потока : 1,20 Гбайт (9%)
Заголовок : DTS / 5.1 / 1536 kbps / Original
Язык : English
Default : Нет
Forced : Нет
Текст #1
Идентификатор : 6
Формат : UTF-8
Идентификатор кодека : S_TEXT/UTF8
Идентификатор кодека/Информация : UTF-8 Plain Text
Заголовок : Forced
Язык : Russian
Default : Да
Forced : Нет
Текст #2
Идентификатор : 7
Формат : UTF-8
Идентификатор кодека : S_TEXT/UTF8
Идентификатор кодека/Информация : UTF-8 Plain Text
Язык : Russian
Default : Нет
Forced : Нет
Текст #3
Идентификатор : 8
Формат : UTF-8
Идентификатор кодека : S_TEXT/UTF8
Идентификатор кодека/Информация : UTF-8 Plain Text
Язык : Ukrainian
Default : Нет
Forced : Нет
Текст #4
Идентификатор : 9
Формат : UTF-8
Идентификатор кодека : S_TEXT/UTF8
Идентификатор кодека/Информация : UTF-8 Plain Text
Язык : English
Default : Нет
Forced : Нет
Текст #5
Идентификатор : 10
Формат : UTF-8
Идентификатор кодека : S_TEXT/UTF8
Идентификатор кодека/Информация : UTF-8 Plain Text
Заголовок : SDH
Язык : English
Default : Нет
Forced : Нет
Текст #6
Идентификатор : 11
Формат : UTF-8
Идентификатор кодека : S_TEXT/UTF8
Идентификатор кодека/Информация : UTF-8 Plain Text
Заголовок : SDH-COLORED
Язык : English
Default : Нет
Forced : Нет
Меню
00:00:00.000 : en:00:00:00.000
00:10:28.169 : en:00:10:28.169
00:17:39.100 : en:00:17:39.100
00:24:50.197 : en:00:24:50.197
00:35:57.947 : en:00:35:57.947
00:46:27.284 : en:00:46:27.284
00:54:34.771 : en:00:54:34.771
01:04:59.562 : en:01:04:59.562
01:12:53.077 : en:01:12:53.077
01:23:08.901 : en:01:23:08.901
01:32:34.132 : en:01:32:34.132
01:42:53.584 : en:01:42:53.584
01:45:46.215 : en:01:45:46.215

Знаете ли вы, что...:

• Фильм снят по мотивам романа Хироси Сакурадзаки «Всё, что тебе нужно — это убивать» (All you need is kill, 2004).
• Том Круз был одним из первых людей, узнавший о беременности Эмили Блант. У съемочной группы и актеров был промежуток в несколько месяцев между основными и повторными съемками. В этот период Эмили Блант забеременела. Она решила никому не рассказывать об этом. Срок ее беременности составлял всего несколько недель, когда актрисе нужно было вновь приступить к съемкам. Тома Круза сильно смутил тот факт, что Блант отказалась выполнять свои трюки самостоятельно во время повторных съемок, с учетом того, что в период основных съемок она все делала сама, после чего Блант и рассказала ему о своем положении.
• Беренис Бежо рассматривалась на роль Риты Вратаски.
• Первоначально главную роль предлагали Брэду Питту, но тот отклонил предложение.
• Том Круз начал заниматься пре-продакшном 20 июля 2012 года, менее чем через неделю после окончания работы над фильмом «Обливион» (2013).
• Том Круз потратил более $ 100,000 на вечеринку, посвященную окончанию съемок фильма для актеров и съемочной группы. Сам он на вечеринке не присутствовал, так как в это время заканчивал работу над своими сценами в фильме.
• В финальные титры не попал сценарист Данте Харпер, который в 2010 году продал сценарий этого фильма студии Warner Bros. за сумму, превышающую 1 миллион долларов.
• Большая часть съемок фильма проходила на тех же съемочных площадках, где снимались фильмы о Гарри Поттере.
• Эмили Блант призналась, что после того, как на нее надели металлический костюм, она расплакалась, потому что он был очень тяжелым (около 38 кг) и ей предстояло 5 месяцев сниматься в нем в экшн-сценах.
• В оригинальной истории речь идет о вторжении в Токио. Рита – американка, а Кейдж – японец по имени Кейдзи Кирия, который к концу истории получает прозвище «Killer Cage».
• Персонаж Джереми Пивена был добавлен во время повторных съемок, но в итоге все сцены с его участием были вырезаны во время монтажа.
• Для съемок картины было изготовлено 70 экзокостюмов в различной комплектации, вес которых составлял от 27 до 57 килограммов.
• Вертолет, который садился на Трафальгарской площади, принадлежит Королевским военно-воздушным силам Великобритании и за его штурвалом сидели профессиональные военные.
• Хотя сюжет фильма и укладывается всего в два дня, пусть и повторяющихся многократно, художники создали для съемок 47 съемочных площадок, в том числе гигантский пляж, куда было завезено 1300 тонн песка.
• В начале фильма среди кадров новостных сводок можно увидеть ролик с падением челябинского метеорита в 2013 году, который показан как часть вторжения инопланетян.

Ошибки в фильме:

• На карте в начале фильма видно, что столица Венгрии — Будапешт, расположена не там, где находится на самом деле.
• В начале фильма голос за кадром говорит: «Они распространились от Гамбурга по всей Европе». Гамбург расположен недалеко от северного побережья Германии, но на карте показывается, что распространение началось откуда-то из центра Европы, около Мюнхена.
• Во время первого разговора с генералом Бригхэмом, одна из пуговиц на куртке Кейджа расстегнута. В следующем кадре его куртка застегнута на все пуговицы.
• Когда Кейдж падает из самолета на пляж, где идет сражение, стекло на его шлеме то появляется, то исчезает.
• На карте, которую показывают в начале фильма, Любляна отмечена как столица Хорватии, хотя на самом деле она является столицей Словении.
Скриншоты:

[Цитировать]



Показать сообщения:    

Текущее время: 05-Дек 21:38

Часовой пояс: UTC + 3


Вы не можете начинать темы
Вы не можете отвечать на сообщения
Вы не можете редактировать свои сообщения
Вы не можете удалять свои сообщения
Вы не можете голосовать в опросах
Вы не можете прикреплять файлы к сообщениям
Вы не можете скачивать файлы

!ВНИМАНИЕ!
Сайт не предоставляет электронные версии произведений, а занимается лишь коллекционированием и каталогизацией ссылок, присылаемых и публикуемых на форуме нашими читателями. Если вы являетесь правообладателем какого-либо представленного материала и не желаете, чтобы ссылка на него находилась в нашем каталоге, свяжитесь с нами, и мы незамедлительно удалим ее. Файлы для обмена на трекере предоставлены пользователями сайта, и администрация не несет ответственности за их содержание. Просьба не заливать файлы, защищенные авторскими правами, а также файлы нелегального содержания!