[ Сегодня идет свободное скачивание без начисления Download ]


Статистика раздачи
Нет
 
   
 
Top  
 
 
-Город грехов 2: Женщина, ради которой стоит убивать / Sin City: A Dame to Kill For (2014) BDRemux
«There is no justice without sin»
- Год выпуска: 2014
Производство: США, Россия / Aldamisa Entertainment, Demarest Films
Жанр: Триллер, криминал
Описание фильма:
Продолжение мрачного нуара о городе порока. В темных переулках Города грехов Дуайт планирует жестоко отомстить женщине по имени Ава Лорд, которая его предала, в то время как Нэнси пытается смириться со смертью детектива Хартигана.
Фильм снят по мотивам графических романов Фрэнка Миллера «Дама, ради которой можно убить» (A Dame to Kill For) и «Просто еще одна субботняя ночь» (Just Another Saturday Night).
Режиссер: Роберт Родригес / Robert Rodriguez, Фрэнк Миллер / Frank Miller
Продюсер: Роберт Родригес, Аарон Кауфман, Стивен Л’Орё
Актеры: Ева Грин, Микки Рурк, Джош Бролин, Джессика Альба, Джозеф Гордон-Левитт, Розарио Доусон, Пауэрс Бут, Деннис Хейсбёрт, Джейми Чунг, Брюс Уиллис
Перевод: Дублированный [лицензия]
Субтитры: Отсутствуют

Дата мировой премьеры: 19 августа 2014
Дата российской премьеры: 21 августа 2014
Дата выхода DVD релиза: 30 сентября 2014, «CD Land»
Дата выхода Blu-ray релиза: 30 сентября 2014, «CD Land»
Рейтинг MPAA: R
Возраст: 18+
Продолжительность: 01:42:46
Качество видео: BDRemux
Видео: MPEG-4 AVC/H.264 (High Profile 4.1), 1920x1080, ~17995 kbps, 24 fps
Аудио 1: DTS 5.1, 1536 kbps, 48 kHz, 24-bit [Русский - дублированный]
Аудио 2: AC3 5.1, 640 kbps, 48 kHz, 16-bit [Русский - дублированный]

Отчёт MediaInfo

Полное имя : D:\Город.грехов.2.Женщина.ради.которой.стоит.убивать-Sin.City.A.Dame.to.Kill.For.(2014).BDRemux.[1080p].mkv
Формат : Matroska
Версия формата : Version 2
Размер файла : 14,5 Гбайт
Продолжительность : 1 ч. 42 м.
Режим общего битрейта : Переменный
Общий поток : 20,1 Мбит/сек
Название фильма : Sin City: A Dame to Kill For (2014) / Lelya_K for NNM-Club
Дата кодирования : UTC 2014-09-26 18:08:12
Программа кодирования : mkvmerge v5.7.0 ('The Whirlwind') built on Aug 7 2012 14:11:40
Библиотека кодирования : libebml v1.2.3 + libmatroska v1.3.0
Attachment : Yes
Видео
Идентификатор : 1
Формат : AVC
Формат/Информация : Advanced Video Codec
Профиль формата : High@L4.1
Параметр CABAC формата : Да
Параметр ReFrames формата : 4 кадра
Параметр GOP формата : M=3, N=24
Идентификатор кодека : V_MPEG4/ISO/AVC
Продолжительность : 1 ч. 42 м.
Вид битрейта : Переменный
Битрейт : 17,6 Мбит/сек
Максимальный битрейт : 34,0 Мбит/сек
Ширина : 1920 пикселей
Высота : 1080 пикселей
Соотношение сторон : 16:9
Режим частоты кадров : Постоянный
Частота кадров : 24,000 кадра/сек
Стандарт вещания : NTSC
Цветовое пространство : YUV
Субдискретизация насыщенности : 4:2:0
Битовая глубина : 8 бит
Тип развёртки : Прогрессивная
Бит/(Пиксели*Кадры) : 0.354
Размер потока : 12,6 Гбайт (87%)
Заголовок : Город.грехов.2.Женщина.ради.которой.стоит.убивать-Sin.City.A.Dame.to.Kill.For.(2014).BDRemux.[1080p]
Язык : English
Default : Да
Forced : Нет
Основные цвета : BT.709
Характеристики трансфера : BT.709
Коэффициенты матрицы : BT.709
Аудио #1
Идентификатор : 2
Формат : DTS
Формат/Информация : Digital Theater Systems
Идентификатор кодека : A_DTS
Продолжительность : 1 ч. 42 м.
Вид битрейта : Постоянный
Битрейт : 1510 Кбит/сек
Каналы : 6 каналов
Расположение каналов : Front: L C R, Side: L R, LFE
Частота : 48,0 КГц
Битовая глубина : 24 бит
Метод сжатия : С потерями
Размер потока : 1,08 Гбайт (7%)
Заголовок : DTS 5.1 / 1536 kbps / Dub
Язык : Russian
Default : Да
Forced : Нет
Аудио #2
Идентификатор : 3
Формат : AC-3
Формат/Информация : Audio Coding 3
Расширение режима : CM (complete main)
Параметр Endianness формата : Big
Идентификатор кодека : A_AC3
Продолжительность : 1 ч. 42 м.
Вид битрейта : Постоянный
Битрейт : 640 Кбит/сек
Каналы : 6 каналов
Расположение каналов : Front: L C R, Side: L R, LFE
Частота : 48,0 КГц
Битовая глубина : 16 бит
Метод сжатия : С потерями
Размер потока : 470 Мбайт (3%)
Заголовок : AC3 5.1 / 640 kbps / Dub
Язык : Russian
Default : Нет
Forced : Нет
Меню
00:00:00.000 : en:Chapter 1
00:07:48.875 : en:Chapter 2
00:17:00.458 : en:Chapter 3
00:21:23.750 : en:Chapter 4
00:27:32.708 : en:Chapter 5
00:35:16.416 : en:Chapter 6
00:40:44.416 : en:Chapter 7
00:48:09.458 : en:Chapter 8
00:55:41.375 : en:Chapter 9
01:07:46.125 : en:Chapter 10
01:17:27.791 : en:Chapter 11
01:28:03.333 : en:Chapter 12
Скриншоты:

[Цитировать]



Показать сообщения:    

Текущее время: 11-Дек 16:57

Часовой пояс: UTC + 3


Вы не можете начинать темы
Вы не можете отвечать на сообщения
Вы не можете редактировать свои сообщения
Вы не можете удалять свои сообщения
Вы не можете голосовать в опросах
Вы не можете прикреплять файлы к сообщениям
Вы не можете скачивать файлы

!ВНИМАНИЕ!
Сайт не предоставляет электронные версии произведений, а занимается лишь коллекционированием и каталогизацией ссылок, присылаемых и публикуемых на форуме нашими читателями. Если вы являетесь правообладателем какого-либо представленного материала и не желаете, чтобы ссылка на него находилась в нашем каталоге, свяжитесь с нами, и мы незамедлительно удалим ее. Файлы для обмена на трекере предоставлены пользователями сайта, и администрация не несет ответственности за их содержание. Просьба не заливать файлы, защищенные авторскими правами, а также файлы нелегального содержания!