[ Сегодня идет свободное скачивание без начисления Download ]


Статистика раздачи
Нет
 
   
 
Top  
 
 
-Третья персона / Third Person (2013) BDRip [720p]- Год выпуска: 2013
Производство: Великобритания, США, Германия, Бельгия
Жанр: Драма, Мелодрама
Описание фильма:
Фильм состоит из трех историй о любви, действие которых развернется в трех разных городах: Нью-Йорке, Париже и Риме.
Режиссер: Пол Хаггис
Продюсер: Моран Атиас, Пол Брюлс, Нильс Дюнкер
Актеры: Лиам Нисон, Мила Кунис, Эдриан Броуди, Оливия Уайлд, Джеймс Франко, Моран Атиас, Мария Белло, Ким Бейсингер, Микеле Мелега, Джанни Франко
Перевод: Двуголосый закадровый, любительский
Озвучка / Автор перевода: Paradox
Субтитры: Вшитые отключаемые
Язык субтитров: Английский

Дата мировой премьеры: 9 сентября 2013
Дата российской премьеры: 27 ноября 2014
Продолжительность: 02:16:45
Качество видео: BDRip
Видеокодек: MPEG-4 AVC/H.264
Битрейт видео: ~5682 kb/s
Размер кадра: 1280x542
Аудио 1: АС3 5.1, 448 kb/s, Русский
Аудио 2: АС3 5.1, 640 kb/s, Английский
Сэмпл: Скачать
Сохранены оригинальные чаптеры как на Blu-ray

MediaInfo:

Общее
Уникальный идентификатор : 239895303097891701642904336777262941552 (0xB47A279F5C744B9CAE18152955FC4570)
Полное имя : C:Торренты\Третья персона.2013.BDRip.720p.mkv
Формат : Matroska
Версия формата : Version 2
Размер файла : 6,47 Гбайт
Продолжительность : 2 ч. 16 м.
Общий поток : 6772 Кбит/сек
Дата кодирования : UTC 2014-09-27 20:01:20
Программа кодирования : mkvmerge v3.3.0 ('Language') built on Mar 24 2010 14:59:24
Библиотека кодирования : libebml v0.8.0 + libmatroska v0.9.0
Видео
Идентификатор : 1
Формат : AVC
Формат/Информация : Advanced Video Codec
Профиль формата : High@L4.1
Параметр CABAC формата : Да
Параметр ReFrames формата : 12 кадров
Идентификатор кодека : V_MPEG4/ISO/AVC
Продолжительность : 2 ч. 16 м.
Битрейт : 5682 Кбит/сек
Ширина : 1280 пикселей
Высота : 542 пикселя
Соотношение сторон : 2,35:1
Режим частоты кадров : Постоянный
Частота кадров : 23,976 кадра/сек
Цветовое пространство : YUV
Субдискретизация насыщенности : 4:2:0
Битовая глубина : 8 бит
Тип развёртки : Прогрессивная
Бит/(Пиксели*Кадры) : 0.342
Размер потока : 5,30 Гбайт (82%)
Библиотека кодирования : x264 core 142 r2479kMod dd79a61
Настройки программы : cabac=1 / ref=12 / deblock=1:-3:-3 / analyse=0x3:0x133 / me=umh / subme=11 / psy=1 / fade_compensate=0.00 / psy_rd=1.08:0.00 / mixed_ref=1 / me_range=24 / chroma_me=1 / trellis=2 / 8x8dct=1 / cqm=0 / deadzone=21,11 / fast_pskip=0 / chroma_qp_offset=-2 / threads=6 / lookahead_threads=1 / sliced_threads=0 / nr=0 / decimate=0 / interlaced=0 / bluray_compat=0 / constrained_intra=0 / fgo=0 / bframes=11 / b_pyramid=2 / b_adapt=2 / b_bias=0 / direct=3 / weightb=1 / open_gop=0 / weightp=2 / keyint=250 / keyint_min=23 / scenecut=40 / intra_refresh=0 / rc_lookahead=0 / rc=2pass / mbtree=0 / bitrate=5682 / ratetol=1.0 / qcomp=0.70 / qpmin=0 / qpmax=69 / qpstep=4 / cplxblur=20.0 / qblur=0.5 / vbv_maxrate=38000 / vbv_bufsize=30000 / nal_hrd=none / filler=0 / ip_ratio=1.40 / pb_ratio=1.30 / aq=1:0.68
Язык : English
Default : Нет
Forced : Нет
Основные цвета : BT.709
Характеристики трансфера : BT.709
Коэффициенты матрицы : BT.709
_STATISTICS_WRITING_APP : mkvmerge v7.1.0 ('Good Love') 32bit built on Jul 27 2014 12:59:18
_STATISTICS_WRITING_DATE_UTC : 2014-09-19 10:55:43
_STATISTICS_TAGS : BPS DURATION NUMBER_OF_FRAMES NUMBER_OF_BYTES
DURATION : 02:16:45.197000000
NUMBER_OF_FRAMES : 196728
NUMBER_OF_BYTES : 5827813877
Аудио #1
Идентификатор : 2
Формат : AC-3
Формат/Информация : Audio Coding 3
Расширение режима : CM (complete main)
Параметр Endianness формата : Big
Идентификатор кодека : A_AC3
Продолжительность : 2 ч. 16 м.
Вид битрейта : Постоянный
Битрейт : 448 Кбит/сек
Каналы : 6 каналов
Расположение каналов : Front: L C R, Side: L R, LFE
Частота : 48,0 КГц
Битовая глубина : 16 бит
Метод сжатия : С потерями
Размер потока : 438 Мбайт (7%)
Заголовок : AC3 5.1 @ 448 kbps - DVO, Paradox
Язык : Russian
Default : Да
Forced : Нет
Аудио #2
Идентификатор : 3
Формат : AC-3
Формат/Информация : Audio Coding 3
Расширение режима : CM (complete main)
Параметр Endianness формата : Big
Идентификатор кодека : A_AC3
Продолжительность : 2 ч. 16 м.
Вид битрейта : Постоянный
Битрейт : 640 Кбит/сек
Каналы : 6 каналов
Расположение каналов : Front: L C R, Side: L R, LFE
Частота : 48,0 КГц
Битовая глубина : 16 бит
Метод сжатия : С потерями
Размер потока : 626 Мбайт (9%)
Заголовок : AC3 5.1 @ 640 kbps
Язык : English
Default : Нет
Forced : Нет
Текст
Идентификатор : 4
Формат : UTF-8
Идентификатор кодека : S_TEXT/UTF8
Идентификатор кодека/Информация : UTF-8 Plain Text
Язык : English
Default : Нет
Forced : Нет
Меню
00:00:00.000 : en:00:00:00.000
00:07:32.786 : en:00:07:32.786
00:16:26.152 : en:00:16:26.152
00:26:13.405 : en:00:26:13.405
00:33:24.211 : en:00:33:24.211
00:40:51.115 : en:00:40:51.115
00:49:09.655 : en:00:49:09.655
00:58:20.330 : en:00:58:20.330
01:06:09.174 : en:01:06:09.174
01:14:23.918 : en:01:14:23.918
01:24:00.202 : en:01:24:00.202
01:33:22.680 : en:01:33:22.680
01:44:20.588 : en:01:44:20.588
01:54:59.476 : en:01:54:59.476
02:00:24.926 : en:02:00:24.926
02:08:28.534 : en:02:08:28.534
Скриншоты: Время раздачи: с 10.00 до 22.00Незабываем благодарить релизёров. Приятного просмотра.

[Цитировать]



Показать сообщения:    

Текущее время: 08-Дек 09:02

Часовой пояс: UTC + 3


Вы не можете начинать темы
Вы не можете отвечать на сообщения
Вы не можете редактировать свои сообщения
Вы не можете удалять свои сообщения
Вы не можете голосовать в опросах
Вы не можете прикреплять файлы к сообщениям
Вы не можете скачивать файлы

!ВНИМАНИЕ!
Сайт не предоставляет электронные версии произведений, а занимается лишь коллекционированием и каталогизацией ссылок, присылаемых и публикуемых на форуме нашими читателями. Если вы являетесь правообладателем какого-либо представленного материала и не желаете, чтобы ссылка на него находилась в нашем каталоге, свяжитесь с нами, и мы незамедлительно удалим ее. Файлы для обмена на трекере предоставлены пользователями сайта, и администрация не несет ответственности за их содержание. Просьба не заливать файлы, защищенные авторскими правами, а также файлы нелегального содержания!