[ Сегодня идет свободное скачивание без начисления Download ]


Статистика раздачи
Нет
 
   
 
Top  
 
 
-Теория заговора / Zulu (2013) BDRip [720р] [hand made 60fps]- Год выпуска: 2013
Производство: Франция, ЮАР / Canal+ [fr], M6 Films
Жанр: Триллер, Драма, Криминал
Режиссер: Жером Салль
Продюсер: Ришар Гранпьер, Вивьен Асланян, Фредерик Донекуан
Актеры: Орландо Блум, Форест Уитакер, Таня ван Граан, Наташа Лоринг, Роксанна Прентис, Патрик Листер, Свен Рюйгрок, Келси Иган, Конрад Кемп, Лизе Слэббер
Описание фильма:
Южная Африка. Кейптаун. 2012 год. Отдел серийных убийств полиции Кейптауна начинает расследование зверского убийства белой девушки. Казавшееся тривиальным преступление быстро превращается в круговорот перестрелок и смертей, ибо в деле оказываются замешаны сначала торговцы наркотиками, потом банды совершенно отмороженных головорезов, а дальше полицейские выходят на интересы могущественной транснациональной корпорации.
В жестком, динамичном и бескомпромиссном криминальном триллере, где кровь льется рекой, героям трудно выжить и не всем это удается. Но детективы Али Сокил и Брайан Ипкин идут до конца, какую бы цену им не пришлось за это заплатить.
Перевод: Любительский двухголосый, любительский одноголосый
Субтитры: Отсутствуют

Дата мировой премьеры: 26 мая 2013
Дата российской премьеры: 25 сентября 2014, «Top Film Distribution»
Продолжительность: 01:46:42
Качество видео: BDRip 720p [profile-LQ]
Видеокодек: MPEG-4 AVC/H.264
Битрейт видео: ~ 5 727 Kbps
Размер кадра: 1280 x 544
Аудио#1: AC3 2, 48.0 KHz, 192 Kbps - Русский - Любительский (одноголосый) [datynet]
Аудио#2: AC3 5.1, 48.0 KHz, 448 Kbps - Русский - Любительский (двухголосый) [Пиратская Студия]

MediaInfo:

General
Unique ID : 200736397195787468528930824656757585241 (0x97046C800AF35854BBF616CC1BF5F559)
Complete name : D:\Торренты\Zulu 60fps.mkv
Format : Matroska
Format version : Version 2
File size : 4.84 GiB
Duration : 1h 46mn
Overall bit rate : 6 496 Kbps
Movie name : Zulu (2013) Blu-Ray Remux | P2, L1
Encoded date : UTC 2014-09-30 11:23:04
Writing application : mkvmerge v6.9.1 ('Blue Panther') 64bit built on Apr 18 2014 18:23:38
Writing library : libebml v1.3.0 + libmatroska v1.4.1
Video
ID : 1
Format : AVC
Format/Info : Advanced Video Codec
Format profile : [email protected]
Format settings, CABAC : Yes
Format settings, ReFrames : 6 frames
Codec ID : V_MPEG4/ISO/AVC
Duration : 1h 46mn
Bit rate : 5 727 Kbps
Width : 1 280 pixels
Height : 544 pixels
Display aspect ratio : 2.35:1
Frame rate mode : Constant
Frame rate : 60.000 fps
Color space : YUV
Chroma subsampling : 4:2:0
Bit depth : 8 bits
Scan type : Progressive
Bits/(Pixel*Frame) : 0.137
Stream size : 4.27 GiB (88%)
Title : Release by mimok
Writing library : x264 core 125 r2208 d9d2288
Encoding settings : cabac=1 / ref=6 / deblock=0:0:0 / analyse=0x3:0x133 / me=umh / subme=8 / psy=1 / psy_rd=1.00:0.15 / mixed_ref=1 / me_range=20 / chroma_me=1 / trellis=2 / 8x8dct=1 / cqm=0 / deadzone=21,11 / fast_pskip=0 / chroma_qp_offset=-3 / threads=6 / lookahead_threads=1 / sliced_threads=0 / nr=0 / decimate=0 / interlaced=0 / bluray_compat=0 / constrained_intra=0 / bframes=7 / b_pyramid=2 / b_adapt=2 / b_bias=0 / direct=1 / weightb=1 / open_gop=0 / weightp=2 / keyint=600 / keyint_min=60 / scenecut=40 / intra_refresh=0 / rc=crf / mbtree=0 / crf=16.0 / qcomp=0.63 / qpmin=10 / qpmax=51 / qpstep=4 / ip_ratio=1.40 / pb_ratio=1.30 / aq=1:1.20
Default : Yes
Forced : No
Audio #1
ID : 2
Format : AC-3
Format/Info : Audio Coding 3
Mode extension : CM (complete main)
Format settings, Endianness : Big
Codec ID : A_AC3
Duration : 1h 46mn
Bit rate mode : Constant
Bit rate : 192 Kbps
Channel(s) : 2 channels
Channel positions : Front: L R
Sampling rate : 44.1 KHz
Bit depth : 16 bits
Compression mode : Lossy
Stream size : 147 MiB (3%)
Title : datynet
Language : Russian
Default : No
Forced : No
Audio #2
ID : 3
Format : AC-3
Format/Info : Audio Coding 3
Mode extension : CM (complete main)
Format settings, Endianness : Big
Codec ID : A_AC3
Duration : 1h 46mn
Bit rate mode : Constant
Bit rate : 448 Kbps
Channel(s) : 6 channels
Channel positions : Front: L C R, Side: L R, LFE
Sampling rate : 48.0 KHz
Bit depth : 16 bits
Compression mode : Lossy
Stream size : 342 MiB (7%)
Title : Пиратская Студия
Language : Russian
Default : Yes
Forced : No
Скриншоты:

Время раздачи: 30.09.2014 до 22:00

[Цитировать]



Показать сообщения:    

Текущее время: 04-Дек 07:02

Часовой пояс: UTC + 3


Вы не можете начинать темы
Вы не можете отвечать на сообщения
Вы не можете редактировать свои сообщения
Вы не можете удалять свои сообщения
Вы не можете голосовать в опросах
Вы не можете прикреплять файлы к сообщениям
Вы не можете скачивать файлы

!ВНИМАНИЕ!
Сайт не предоставляет электронные версии произведений, а занимается лишь коллекционированием и каталогизацией ссылок, присылаемых и публикуемых на форуме нашими читателями. Если вы являетесь правообладателем какого-либо представленного материала и не желаете, чтобы ссылка на него находилась в нашем каталоге, свяжитесь с нами, и мы незамедлительно удалим ее. Файлы для обмена на трекере предоставлены пользователями сайта, и администрация не несет ответственности за их содержание. Просьба не заливать файлы, защищенные авторскими правами, а также файлы нелегального содержания!