[ Сегодня идет свободное скачивание без начисления Download ]


Статистика раздачи
Нет
 
   
 
Top  
 
 
-Люди Икс: Дни минувшего будущего / X-Men: Days of Future Past (2014) HDRip«His past. Our future»- Год выпуска: 2014
Производство: США, Великобритания
Жанр: Фантастика, Фэнтези, Боевик
Режиссер: Брайан Сингер
Продюсер: Саймон Кинберг, Хатч Паркер, Лорен Шулер Доннер
Актеры: Майкл Фассбендер, Джеймс МакЭвой, Хью Джекман, Дженнифер Лоуренс, Иэн МакКеллен, Патрик Стюарт, Николас Холт, Эллен Пейдж, Холли Берри, Питер Динклэйдж
Описание фильма:
В недалёком будущем мутанты близки к истреблению роботами-охотниками на мутантов Стражами. Единственная надежда для мутантов выжить — предотвратить череду роковых событий, приведших к появлению Стражей. С помощью своих способностей, Китти Прайд перемещает сознание Росомахи в его молодое тело в 1973 год. В прошлом всё оказывается не так радужно: молодой Профессор Икс окончательно разочарован в своих идеях, Магнето содержится в тюрьме глубоко под землёй, а человечество не знает как реагировать на широкое появление мутантов…
Перевод: Дублированный (Лицензия)
Субтитры: Отсутствуют
Рейтинг MPAA: PG-13 (детям до 13 лет просмотр не желателен)
Возраст: 12+

Дата мировой премьеры: 10 мая 2014
Дата российской премьеры: 22 мая 2014
Дата выхода DVD релиза: 2 октября 2014, «Двадцатый Век Фокс СНГ»
Дата выхода Blu-Ray релиза: 2 октября 2014, «Двадцатый Век Фокс СНГ»
Продолжительность: 02:11:35
Качество видео: HDRip
Видеокодек: XviD
Битрейт видео: ~1773 Kbps
Размер кадра: 720x304, 23,976 fps
Аудио: AC3, 48,0 KHz, 6 ch, 448 Kbps, CBR (Русский, Дубляж)

Знаете ли вы, что:

• Мэттью Вон значился режиссёром фильма с самого момента объявления проекта. Однако, когда фильм вышел на финальную стадию пре-продакшена, неожиданно переключился на другой проект и его работу подхватил Брайан Сингер (по большей степени потому что занимался постановкой двух первых фильмов франшизы), внеся свою лепту в написание сценария.
• Патрик Стюарт и Иэн МакКеллен были на гастролях с постановкой «В ожидании Годо», когда Брайан Сингер связался с актерами и предложил им исполнить роли Профессора Икс и Магнето. По словам МакКеллена, оба актера были потрясены этим предложением. Они были уверены в том, что их роли прочно закрепились за Джеймсом МакЭвоем и Майклом Фассбендером, и что они уже никогда не вернутся к этим персонажам.
• Тема с перемещениями во времени из сюжетной линии комикса «X-men: Days of Future Past» была выбрана за основу фильма, чтобы свести две истории в одну: закрыть сюжетную линию оригинальной трилогии и продолжить работать с сюжетом фильма «Люди Икс: Первый класс».
• По словам Брайана Сингера, у него была двухчасовая дискуссия с Джеймсом Кэмероном, поставившим два фильма о перемещениях во времени («Терминатор» и «Терминатор 2: Судный день»). Режиссёры обсуждали, какая концепция перемещений во времени наиболее правдоподобна и будет работать в рамках фильма.
• Брайан Сингер снимал сцены с мутантом Ртутью в необычном формате — 3600 кадров в секунду. Это было сделано для того, чтобы продемонстрировать «скоростные» способности Ртути. Благодаря такой съемке этот персонаж в фильме будет передвигаться в 150 раз быстрее обычных персонажей.
• В оригинальном комиксе «Дни минувшего будущего» (Days of Future past) упоминается путешествие во времени из 2013-го года, в этом же году начались съемки фильма.
• Крис Клэрмонт, автор оригинального комикса «Дни минувшего будущего» (Days of Future past), выступил в этом проекте в роли консультанта.
• Остальные факты на kinopoisk.ru

MediaInfo:

Формат                                   : AVI
Формат/Информация                        : Audio Video Interleave
Профиль формата                          : OpenDML
Размер файла                             : 2,05 Гбайт
Продолжительность                        : 2 ч. 11 м.
Общий поток                              : 2233 Кбит/сек
Название фильма                          : X-Men: Days of Future Past (2014)
Программа кодирования                    : VirtualDubMod 1.5.10.2 (build 2540/release)
Видео
Идентификатор                            : 0
Формат                                   : MPEG-4 Visual
Профиль формата                          : Advanced Simple@L5
Параметр BVOP формата                    : 2
Параметр QPel формата                    : Нет
Параметр GMC формата                     : Без точки перехода
Параметр матрицы формата                 : Выборочная
Идентификатор кодека                     : XVID
Идентификатор кодека/Подсказка           : XviD
Продолжительность                        : 2 ч. 11 м.
Битрейт                                  : 1773 Кбит/сек
Ширина                                   : 720 пикселей
Высота                                   : 304 пикселя
Соотношение сторон                       : 2,35:1
Частота кадров                           : 23,976 кадра/сек
Цветовое пространство                    : YUV
Субдискретизация насыщенности            : 4:2:0
Битовая глубина                          : 8 бит
Тип развёртки                            : Прогрессивная
Метод сжатия                             : С потерями
Бит/(Пиксели*Кадры)                      : 0.338
Размер потока                            : 1,63 Гбайт (79%)
Библиотека кодирования                   : XviD 1.2.1 (UTC 2008-12-04)
Аудио
Идентификатор                            : 1
Формат                                   : AC-3
Формат/Информация                        : Audio Coding 3
Расширение режима                        : CM (complete main)
Параметр Endianness формата              : Big
Идентификатор кодека                     : 2000
Продолжительность                        : 2 ч. 11 м.
Вид битрейта                             : Постоянный
Битрейт                                  : 448 Кбит/сек
Каналы                                   : 6 каналов
Расположение каналов                     : Front: L C R, Side: L R, LFE
Частота                                  : 48,0 КГц
Битовая глубина                          : 16 бит
Метод сжатия                             : С потерями
Размер потока                            : 422 Мбайт (20%)
Выравнивание                             : Разделение по промежуткам
Продолжительность промежутка             : 42  мс. (1,00 видеокадр)
Время предзагрузки промежутка            : 500  мс.
Скриншоты:

[Цитировать]

Топик был перенесен из форума Новинки кинопроката в форум Фантастика
Henkok



Показать сообщения:    

Текущее время: 26-Июн 20:04

Часовой пояс: UTC + 6


Вы не можете начинать темы
Вы не можете отвечать на сообщения
Вы не можете редактировать свои сообщения
Вы не можете удалять свои сообщения
Вы не можете голосовать в опросах
Вы не можете прикреплять файлы к сообщениям
Вы не можете скачивать файлы

!ВНИМАНИЕ!
Сайт не предоставляет электронные версии произведений, а занимается лишь коллекционированием и каталогизацией ссылок, присылаемых и публикуемых на форуме нашими читателями. Если вы являетесь правообладателем какого-либо представленного материала и не желаете, чтобы ссылка на него находилась в нашем каталоге, свяжитесь с нами, и мы незамедлительно удалим ее. Файлы для обмена на трекере предоставлены пользователями сайта, и администрация не несет ответственности за их содержание. Просьба не заливать файлы, защищенные авторскими правами, а также файлы нелегального содержания!