[ Сегодня идет свободное скачивание без начисления Download ]


Статистика раздачи
Нет
 
   
 
Top  
 
 
-Реальные пацаны. Возвращение (2014) WEB-DLRip [H.264] (серии 1-20)- Русское название: Реальные пацаны
Производство: "Гуд Стори Медиа", Россия
Год выпуска: 2014
Жанр: Комедия
Режиссер: Жанна Кадникова
Актеры: Николай Наумов, Антон Богданов, Владимир Селиванов, Станислав Тляшев, Зоя Бербер, Игорь Ознобихин, Марина Федункив, Валентина Мазунина, Алексей Базанов, Армен Бежанян, Мария Шекунова
Описание фильма:
Колян из Перми усиленно воровал канализационные люки, получил за это условный срок, потом решил исправиться, влюбился в богатую девушку и устроил себе жизнь веселую. Он встал на путь исправления и старается жить честно. Даже устроился на работу продавцом в салон связи, где тайно презирает напарника за обтягивающие маечки и нетрадиционный лоск. Помимо духовного роста, жизнь Коляна осложняют любовные терзания. Он встречается с девушкой, которая работает гигантской плюшевой таблеткой возле районной аптеки. А мечтает о девушке, которая учится в университете и летает на шопинг в Лондон. А еще жизнь Коляна осложняют друзья. Они не хотят, чтобы Колян исправлялся, они хотят все вместе кататься по району на тачках, лазить в общежитие к будущим медсестрам и отжимать мелочь у школьников.

Дата российской премьеры: 01.09.2014
Продолжительность: ~ 00:25:00 серия
Качество видео: WEB-DLRip
Видеокодек: AVC/H.264
Битрейт видео: ~2400 Kbps
Размер кадра: 1024x576 (16:9)
Аудиокодек: AC3
Битрейт аудио: 2 ch, 192 Kbps

MediaInfo:

Общее
Уникальный идентификатор : 234930811212035027085167879180108507428 (0xB0BE07465A3ED5F3B62075B881A12924)
Полное имя : E:\DOWNLOADS\Реальные пацаны. Возвращение (6 сезон) 2014 WEB-DLRip [H.264]\Реальные пацаны - 01 серия.mkv
Формат : Matroska
Версия формата : Version 2
Размер файла : 436 Мбайт
Продолжительность : 23 м.
Общий поток : 2594 Кбит/сек
Дата кодирования : UTC 2014-09-02 10:52:13
Программа кодирования : mkvmerge v6.1.0 ('Old Devil') built on Mar 4 2013 09:10:42
Библиотека кодирования : libebml v1.3.0 + libmatroska v1.4.0
Видео
Идентификатор : 1
Формат : AVC
Формат/Информация : Advanced Video Codec
Профиль формата : [url=mailto:High@L4.1]High@L4.1[/url]
Параметр CABAC формата : Да
Параметр ReFrames формата : 5 кадров
Идентификатор кодека : V_MPEG4/ISO/AVC
Продолжительность : 23 м.
Битрейт : 2400 Кбит/сек
Ширина : 1024 пикселя
Высота : 576 пикселей
Соотношение сторон : 16:9
Режим частоты кадров : Постоянный
Частота кадров : 25,000 кадров/сек
Цветовое пространство : YUV
Субдискретизация насыщенности : 4:2:0
Битовая глубина : 8 бит
Тип развёртки : Прогрессивная
Бит/(Пиксели*Кадры) : 0.163
Размер потока : 395 Мбайт (91%)
Библиотека кодирования : x264 core 130 r2273 b3065e6
Настройки программы : cabac=1 / ref=5 / deblock=1:-1:-1 / analyse=0x3:0x133 / me=umh / subme=7 / psy=1 / psy_rd=1.00:0.00 / mixed_ref=1 / me_range=16 / chroma_me=1 / trellis=2 / 8x8dct=1 / cqm=0 / deadzone=21,11 / fast_pskip=0 / chroma_qp_offset=-2 / threads=3 / lookahead_threads=1 / sliced_threads=0 / nr=0 / decimate=1 / interlaced=0 / bluray_compat=0 / constrained_intra=0 / bframes=3 / b_pyramid=2 / b_adapt=2 / b_bias=0 / direct=3 / weightb=1 / open_gop=0 / weightp=2 / keyint=250 / keyint_min=25 / scenecut=40 / intra_refresh=0 / rc_lookahead=50 / rc=2pass / mbtree=1 / bitrate=2400 / ratetol=1.0 / qcomp=0.60 / qpmin=0 / qpmax=69 / qpstep=4 / cplxblur=20.0 / qblur=0.5 / ip_ratio=1.40 / aq=1:1.00
Default : Да
Forced : Нет
Аудио
Идентификатор : 2
Формат : AC-3
Формат/Информация : Audio Coding 3
Расширение режима : CM (complete main)
Параметр Endianness формата : Big
Идентификатор кодека : A_AC3
Продолжительность : 23 м.
Вид битрейта : Постоянный
Битрейт : 192 Кбит/сек
Каналы : 2 канала
Расположение каналов : Front: L R
Частота : 44,1 КГц
Битовая глубина : 16 бит
Метод сжатия : С потерями
Размер потока : 32,3 Мбайт (7%)
Default : Да
Forced : Нет

Краткое описание серий:

01 серия
Колян снова в Перми, переживает развод с Лерой. Ему в этом помогает новая девушка – Наташа. У Антоха и Вована новый бизнес – автомойка на районе, Эдик и Машка спорят об имени дочери, а Мама Коляна получает неожиданные новости.
02 серия
У Коляновой Наташи есть поклонник - горячий дагестанец Мага. Пока Колян готовится к разборкам, Вован делает Вале предложение и узнаёт, что его родители против. Оказывается, в деле замешана семейная тайна.
03 серия
Антоха и Вован готовятся к торжественному открытию автомойки, а Колян к встрече с Иванычем. У тестя к нему серьезный, мужской разговор. Арменка дает сеанс одновременной игры в нарды, среди его соперников, сплошь отборные алкаши.
04 серия
На районе спортивный праздник. В Пермь возвращается Лера с Мишкой. Колян знакомится с мамой Наташи и оказывается в полиции. Родители Вована и Вали уговаривают детей отменить свадьбу и скандалят между собой.
05 серия
Колян считает, что сыну Мише недостает мужского воспитания и наверстывает упущенное. Антоха, Вован и Эдик по распоряжению участкового красят веранду в детском саду.
06 серия
Эдик предлагает Вовану и Антохе продавать на автомойке моющее средство. Мама позвала Леру в гости посмотреть Мишкины фотки, но Коля сломал ноутбук.
07 серия
Коля купил букет для Леры, но встретился с Наташей. У Эдика новый бизнес – сетевой маркетинг, а Базанов познакомился с новой соседкой по лестничной клетке.
08 серия
Лера и Колян просыпаются вместе, но Лера говорит, что это ничего не меняет. Из деревни приезжает бабушка Коляна и Мама получает в подарок прялку, теперь надо достать шерсть. Специально для Хэллоуина Вова делает костюм Робокопа.
09 серия
Антоха купил машину. Колян уговаривает его съездить в деревню, отвезти бабушку. Базанов скрывает от Марго, что работает в полиции и выдаёт себя за спасателя.
10 серия
Участковый Игорь Сергеевич устраивает Коляна работать на почту. Валя заставляет Вована учить свадебный танец, Антоха и Наташа изощренно мстят Коляну, а Лера говорит бывшему мужу, что уезжает с Мишкой навсегда.
11 серия
Колян ищет адвоката чтобы помешать Лере увезти сына, а Эдик и Машка снова играют в богатую жизнь.
12 серия
Колян прощается с Мишкой. Лера решила сделать автозагар в салоне у Викусика, Вован задумывается уважает ли его Валентина, Антохе клиентка впарила фальшивые пять тысяч, а у Марго синяк. Мужик Базанов вынужден действовать.
13 серия
Колян прячется с Мишкой в деревне у бабушки и встречает там Батю. Иваныч отправляет Антоху и Вована на поиски внука и бывшего зятя. А пермским полицейским выдали служебный автомобиль и теперь Базанов осваивает вождение.
14 серия
Иваныч с участковым Игорем Сергеевичем едут в деревню за внуком. В доме у бабушки Коляна укрываются беглые зэки и таким образом четыре поколения Наумовых оказываются у них в заложниках.
15 серия
Пацаны раздобыли самогонный аппарат и применяют его по назначению. Наташа сообщает Коляну и Антохе, что беременна, а Эдик против воли оказывается на девичнике Вали.
16 серия
Отец Наташи знакомится с Коляном и Антохой и при встрече решается хорошенько им навалять. Прямо перед регистрацией куда-то пропадает Валя, а Маша и Эдик приходят на чужую свадьбу в нарядах жениха и невесты.
17 серия
Вована побили малолетки с района и теперь пацанам предстоит вернуть потерянный авторитет. Марго выступает на рок-фестивале. У Базанова нет выбора и он пытается влиться в чуждую для себя культуру. А Иваныч купил убыточный завод, чтобы получить выгодный тендер.
18 серия
Коляна повысили на работе, доверили разносить пенсии. Антоха подрядился помогать старушке по хозяйству в обмен на завещание квартиры. Наташа лежит на сохранении и требует от пацанов, чтобы они ее навещали.
19 серия
Участковый просит Коляна помочь разнести повестки уклонистам. Первым повестку получает Эдик и теперь ему нужна помощь. Антоха помогает Базанову вернуть украденные деньги, чтобы потом продать ему машину.
20 серия
Иваныч готовится получить тендер и стать ещё более богатым и влиятельным человеком. Лера с Мишкой вернулась из Испании, Наташе опять негде жить, а Эдика, все-таки, забирают в армию.
Скриншоты:

[Цитировать]

Топик был перенесен из форума Новинки кинопроката в форум Отечественные сериалы
Henkok



Показать сообщения:    

Текущее время: 11-Дек 11:06

Часовой пояс: UTC + 3


Вы не можете начинать темы
Вы не можете отвечать на сообщения
Вы не можете редактировать свои сообщения
Вы не можете удалять свои сообщения
Вы не можете голосовать в опросах
Вы не можете прикреплять файлы к сообщениям
Вы не можете скачивать файлы

!ВНИМАНИЕ!
Сайт не предоставляет электронные версии произведений, а занимается лишь коллекционированием и каталогизацией ссылок, присылаемых и публикуемых на форуме нашими читателями. Если вы являетесь правообладателем какого-либо представленного материала и не желаете, чтобы ссылка на него находилась в нашем каталоге, свяжитесь с нами, и мы незамедлительно удалим ее. Файлы для обмена на трекере предоставлены пользователями сайта, и администрация не несет ответственности за их содержание. Просьба не заливать файлы, защищенные авторскими правами, а также файлы нелегального содержания!