[ Сегодня идет свободное скачивание без начисления Download ]


Статистика раздачи
Нет
 
   
 
Top  
 
 
-Восьмидесятые-4 (2014) SATRip (Серии 1-20 из 20)- Год выпуска: 2014
Производство: Россия, Леан-М, Гуд Стори Медиа
Жанр: Комедия
Дата российской премьеры: 15 сентября 2014
Режиссер: Юлия Лёвкина
Актеры: Александр Якин, Александр Половцев, Мария Аронова, Александр Новицкий, Дмитрий Белоцерковский, Наталья Земцова, Анна Цуканова, Никита Ефремов, Роман Фомин, Анастасия Балякина, Леонид Громов, Юлия Сулес, Наталья Карпунина, Артур Ваха, Игорь Лагутин, Роман Маякин, Ирина Чипиженко, Елена Лебедева
Описание фильма:
Сериал «Восьмидесятые» - это история про один из самых интересных периодов в жизни нашей страны. Мы как-то обходились без интернета и мобильного телефона. А чтобы передать ключ от квартиры, просто оставляли его под ковриком. Это было странное время, когда нельзя было ничего купить, но достать можно было все. В каждой квартире обязательно стояли югославский гарнитур и шведская стенка, а лучшим подарком были французские духи и электрическая бритва.

Продолжительность: ~00:24:00 серия
Качество видео: SATRip
Видеокодек: XviD
Битрейт видео: 1800 kbps
Размер кадра: 704x400
Аудиокодек: MP3, 2 ch
Битрейт аудио: 128 kbps

Внимание! Раздача ведётся путём добавления новых серий. Описание обновления торрента:

Внимание! Раздача ведётся путём добавления новых серий; при каждом добавлении создётся новый торрент. Чтобы начать докачку новой серии, пользователям необходимо сделать следующее:
(1) остановить скачивание,
(2) удалить старый торрент у себя из клиента (старые серии удалять не надо),
(3) скачать новый торрент и запустить его у себя в клиенте вместо старого, при этом указать клиенту путь в старую папку куда и должно происходить скачивание новых серий.
Ваш клиент при этом должен произвести хеширование (проверку) старой папки (если не производит сам - помогите ему сделать это), и будет докачивать только те серии которых у вас ещё нет. Старые серии при этом не удаляются, а продолжают раздаваться!
Eсли вы уже удалили старые серии, то предотвратить повторную закачку старых серий можно, отжав галочку в соответсвующих местах при запуске нового торрента. По возможности, желательно не удалять старые серии как можно дольше чтобы релизёр не столько продолжал раздавать старые серии, а смог сконцентрироваться на новых

MI

Общее
Полное имя                               : D:\Раздачи\Vosmidesjatye.4.2014.SATRip.NNM-CLUB\01.serija.avi
Формат                                   : AVI
Формат/Информация                        : Audio Video Interleave
Размер файла                             : 340 Мбайт
Продолжительность                        : 24 м.
Общий поток                              : 1937 Кбит/сек
Библиотека кодирования                   : VirtualDub build 32817/release
Видео
Идентификатор                            : 0
Формат                                   : MPEG-4 Visual
Профиль формата                          : Advanced [email protected]
Параметр BVOP формата                    : 2
Параметр QPel формата                    : Нет
Параметр GMC формата                     : Без точки перехода
Параметр матрицы формата                 : Default (MPEG)
Идентификатор кодека                     : XVID
Идентификатор кодека/Подсказка           : XviD
Продолжительность                        : 24 м.
Битрейт                                  : 1800 Кбит/сек
Ширина                                   : 704 пикселя
Высота                                   : 400 пикселей
Соотношение сторон                       : 16:9
Частота кадров                           : 25,000 кадров/сек
Цветовое пространство                    : YUV
Субдискретизация насыщенности            : 4:2:0
Битовая глубина                          : 8 бит
Тип развёртки                            : Прогрессивная
Метод сжатия                             : С потерями
Бит/(Пиксели*Кадры)                      : 0.256
Размер потока                            : 316 Мбайт (93%)
Библиотека кодирования                   : XviD 1.2.1 (UTC 2008-12-04)
Аудио
Идентификатор                            : 1
Формат                                   : MPEG Audio
Версия формата                           : Version 1
Профиль формата                          : Layer 3
Режим                                    : Joint stereo
Расширение режима                        : MS Stereo
Идентификатор кодека                     : 55
Идентификатор кодека/Подсказка           : MP3
Продолжительность                        : 24 м.
Вид битрейта                             : Постоянный
Битрейт                                  : 128 Кбит/сек
Каналы                                   : 2 канала
Частота                                  : 48,0 КГц
Метод сжатия                             : С потерями
Размер потока                            : 22,5 Мбайт (7%)
Выравнивание                             : Разделение по промежуткам
Продолжительность промежутка             : 40  мс. (1,00 видеокадр)
Время предзагрузки промежутка            : 500  мс.
Скриншоты:

[Цитировать]



Показать сообщения:    

Текущее время: 05-Дек 21:41

Часовой пояс: UTC + 3


Вы не можете начинать темы
Вы не можете отвечать на сообщения
Вы не можете редактировать свои сообщения
Вы не можете удалять свои сообщения
Вы не можете голосовать в опросах
Вы не можете прикреплять файлы к сообщениям
Вы не можете скачивать файлы

!ВНИМАНИЕ!
Сайт не предоставляет электронные версии произведений, а занимается лишь коллекционированием и каталогизацией ссылок, присылаемых и публикуемых на форуме нашими читателями. Если вы являетесь правообладателем какого-либо представленного материала и не желаете, чтобы ссылка на него находилась в нашем каталоге, свяжитесь с нами, и мы незамедлительно удалим ее. Файлы для обмена на трекере предоставлены пользователями сайта, и администрация не несет ответственности за их содержание. Просьба не заливать файлы, защищенные авторскими правами, а также файлы нелегального содержания!