[ Сегодня идет свободное скачивание без начисления Download ]


Статистика раздачи
Нет
 
   
 
Top  
 
 
-Мачо и ботан 2 / 22 Jump Street (2014) BDRip [720p]- Год выпуска: 2014
Производство: США, Metro-Goldwyn-Mayer
Жанр: Боевик, Комедия, Криминал
Режиссер: Фил Лорд, Кристофер Миллер
Продюсер: Джона Хилл, Нил Х. Мориц, Ченнинг Татум
Актеры: Джона Хилл, Ченнинг Татум, Петер Стормаре, Уайатт Расселл, Эмбер Стивенс, Джиллиан Белл, Айс Кьюб, братья Лукас, Ник Офферман, Джимми Татро
Описание фильма:
Офицерам Шмидту и Дженко теперь предстоит работать под прикрытием в местном колледже. Однако когда Дженко встречает родственную душу в футбольной команде, а Шмидт проникает в богемную среду, они начинают сомневаться в их товариществе.
Перевод: Дублированный, Любительский одноголосый закадровый
Субтитры: Вшитые отключаемые
Язык субтитров: Русский (Forced, Full), английский (Full, Commentary)

Дата мировой премьеры: 5 июня 2014
Дата российской премьеры: 3 июля 2014, «WDSSPR»
Дата выхода DVD релиза: 16 октября 2014, «CP Дистрибуция»
Дата выхода Blu-ray релиза: 16 октября 2014, «CP Дистрибуция»
Продолжительность: 01:51:56
Качество видео: BDRip [720p]
Видеокодек: MPEG-4 AVC/H.264
Битрейт видео: ~5756 Kbps
Размер кадра: 1280x536
Aудио #1: Русский: 48 kHz, AC3, 3/2 (L,C,R,l,r) + LFE ch, ~640.00 kbps avg - (Дубляж, Blu-ray CEE)
Аудио #2: Русский: 48 kHz, DTS, 3/2 (L,C,R,l,r) + LFE ch, ~1509.00 kbps avg - (Любительский одноголосый закадровый, A.Матвеев)
Aудио #3: Украинский: 48 kHz, AC3, 3/2 (L,C,R,l,r) + LFE ch, ~640.00 kbps avg - (Дубляж, Blu-ray CEE)
Аудио #4: Английский: 48 kHz, DTS, 3/2 (L,C,R,l,r) + LFE ch, ~1509.00 kbps avg - (Оригинал)
Адиуо #5: Английский: 48 kHz, AC3, 2/0 (L,R) ch, ~192.00 kbps avg - (Commentary with directors Phil Lord & Chris Miller, Jonah Hill and Channing Tatum)
Сэмпл: Скачать

MediaInfo:

Общее
Уникальный идентификатор : 174604799107372644523629525414319900156 (0x835BA93E138ED808935DC62B196A45FC)
Полное имя : D:\Фильмы\Macho.i.Botan.2.2014.BDRip.720p.mkv
Формат : Matroska
Версия формата : Version 2
Размер файла : 8,17 Гбайт
Продолжительность : 1 ч. 51 м.
Общий поток : 10,5 Мбит/сек
Название фильма : 22 Jump Street (2014) - Release for HDCLUB
Дата кодирования : UTC 2014-10-12 13:43:35
Программа кодирования : mkvmerge v5.7.0 ('The Whirlwind') built on Jul 8 2012 20:08:51
Библиотека кодирования : libebml v1.2.3 + libmatroska v1.3.0
Видео
Идентификатор : 1
Формат : AVC
Формат/Информация : Advanced Video Codec
Профиль формата : [email protected]
Параметр CABAC формата : Да
Параметр ReFrames формата : 12 кадров
Идентификатор кодека : V_MPEG4/ISO/AVC
Продолжительность : 1 ч. 51 м.
Битрейт : 5756 Кбит/сек
Ширина : 1280 пикселей
Высота : 536 пикселей
Соотношение сторон : 2,40:1
Соотношение сторон в оригинале : 2,40:1
Режим частоты кадров : Постоянный
Частота кадров : 23,976 кадра/сек
Цветовое пространство : YUV
Субдискретизация насыщенности : 4:2:0
Битовая глубина : 8 бит
Тип развёртки : Прогрессивная
Бит/(Пиксели*Кадры) : 0.350
Размер потока : 4,50 Гбайт (55%)
Библиотека кодирования : x264 core 142 r2409+42 04be48a tMod [[email protected] X86_64]
Настройки программы : cabac=1 / ref=12 / deblock=1:-3:-3 / analyse=0x3:0x133 / me=umh / subme=11 / psy=1 / fade_compensate=0.00 / psy_rd=1.00:0.00 / mixed_ref=1 / me_range=48 / chroma_me=1 / trellis=2 / 8x8dct=1 / cqm=0 / deadzone=21,11 / fast_pskip=0 / chroma_qp_offset=-2 / threads=12 / lookahead_threads=3 / sliced_threads=0 / nr=0 / decimate=0 / interlaced=0 / bluray_compat=0 / constrained_intra=0 / fgo=0 / bframes=16 / b_pyramid=2 / b_adapt=2 / b_bias=0 / direct=3 / weightb=1 / open_gop=0 / weightp=2 / keyint=250 / keyint_min=23 / scenecut=40 / intra_refresh=0 / rc=crf / mbtree=0 / crf=15.7500 / qcomp=0.70 / qpmin=0:0:0 / qpmax=69:69:69 / qpstep=4 / ip_ratio=1.30 / pb_ratio=1.20 / aq=1:0.90 / aq-sensitivity=10.00 / aq-factor=1.00:1.00:1.00 / aq2=0 / aq3=0 / zones=1480,1563,q=12/2344,2446,q=12/66467,66566,b=1.8/68428,68444,b=1.8
Язык : English
Default : Да
Forced : Нет
Аудио #1
Идентификатор : 2
Формат : AC-3
Формат/Информация : Audio Coding 3
Расширение режима : CM (complete main)
Параметр Endianness формата : Big
Идентификатор кодека : A_AC3
Продолжительность : 1 ч. 51 м.
Вид битрейта : Постоянный
Битрейт : 640 Кбит/сек
Каналы : 6 каналов
Расположение каналов : Front: L C R, Side: L R, LFE
Частота : 48,0 КГц
Битовая глубина : 16 бит
Метод сжатия : С потерями
Размер потока : 512 Мбайт (6%)
Заголовок : |Дубляж, Blu-ray CEE|
Язык : Russian
Default : Да
Forced : Нет
Аудио #2
Идентификатор : 3
Формат : DTS
Формат/Информация : Digital Theater Systems
Режим : 16
Параметр Endianness формата : Big
Идентификатор кодека : A_DTS
Продолжительность : 1 ч. 51 м.
Вид битрейта : Постоянный
Битрейт : 1509 Кбит/сек
Каналы : 6 каналов
Расположение каналов : Front: L C R, Side: L R, LFE
Частота : 48,0 КГц
Битовая глубина : 16 бит
Метод сжатия : С потерями
Размер потока : 1,18 Гбайт (14%)
Заголовок : |Одноголосый закадровый, A.Матвеев|
Язык : Russian
Default : Нет
Forced : Нет
Аудио #3
Идентификатор : 4
Формат : AC-3
Формат/Информация : Audio Coding 3
Расширение режима : CM (complete main)
Параметр Endianness формата : Big
Идентификатор кодека : A_AC3
Продолжительность : 1 ч. 51 м.
Вид битрейта : Постоянный
Битрейт : 640 Кбит/сек
Каналы : 6 каналов
Расположение каналов : Front: L C R, Side: L R, LFE
Частота : 48,0 КГц
Битовая глубина : 16 бит
Метод сжатия : С потерями
Размер потока : 512 Мбайт (6%)
Заголовок : |Дубляж, Blu-ray CEE|
Язык : Ukrainian
Default : Нет
Forced : Нет
Аудио #4
Идентификатор : 5
Формат : DTS
Формат/Информация : Digital Theater Systems
Режим : 16
Параметр Endianness формата : Big
Идентификатор кодека : A_DTS
Продолжительность : 1 ч. 51 м.
Вид битрейта : Постоянный
Битрейт : 1509 Кбит/сек
Каналы : 6 каналов
Расположение каналов : Front: L C R, Side: L R, LFE
Частота : 48,0 КГц
Битовая глубина : 24 бит
Метод сжатия : С потерями
Размер потока : 1,18 Гбайт (14%)
Язык : English
Default : Нет
Forced : Нет
Аудио #5
Идентификатор : 6
Формат : AC-3
Формат/Информация : Audio Coding 3
Профиль формата : Dolby Digital
Расширение режима : CM (complete main)
Параметр Endianness формата : Big
Идентификатор кодека : A_AC3
Продолжительность : 1 ч. 51 м.
Вид битрейта : Постоянный
Битрейт : 192 Кбит/сек
Каналы : 2 канала
Расположение каналов : Front: L R
Частота : 48,0 КГц
Битовая глубина : 16 бит
Метод сжатия : С потерями
Размер потока : 154 Мбайт (2%)
Заголовок : Commentary with directors Phil Lord & Chris Miller, Jonah Hill and Channing Tatum
Язык : English
Default : Нет
Forced : Нет
Текст #1
Идентификатор : 7
Формат : UTF-8
Идентификатор кодека : S_TEXT/UTF8
Идентификатор кодека/Информация : UTF-8 Plain Text
Заголовок : Forced
Язык : Russian
Default : Да
Forced : Да
Текст #2
Идентификатор : 8
Формат : UTF-8
Идентификатор кодека : S_TEXT/UTF8
Идентификатор кодека/Информация : UTF-8 Plain Text
Язык : Russian
Default : Нет
Forced : Нет
Текст #3
Идентификатор : 9
Формат : UTF-8
Идентификатор кодека : S_TEXT/UTF8
Идентификатор кодека/Информация : UTF-8 Plain Text
Язык : English
Default : Нет
Forced : Нет
Текст #4
Идентификатор : 10
Формат : UTF-8
Идентификатор кодека : S_TEXT/UTF8
Идентификатор кодека/Информация : UTF-8 Plain Text
Заголовок : Commentary
Язык : English
Default : Нет
Forced : Нет
Меню
00:00:00.000 : en:00:00:00.000
00:06:21.798 : en:00:06:21.798
00:13:09.372 : en:00:13:09.372
00:19:57.363 : en:00:19:57.363
00:26:32.174 : en:00:26:32.174
00:31:30.097 : en:00:31:30.097
00:36:47.247 : en:00:36:47.247
00:43:49.252 : en:00:43:49.252
00:51:46.395 : en:00:51:46.395
00:58:58.410 : en:00:58:58.410
01:07:30.588 : en:01:07:30.588
01:16:28.250 : en:01:16:28.250
01:23:02.603 : en:01:23:02.603
01:29:51.678 : en:01:29:51.678
01:35:25.470 : en:01:35:25.470
01:41:57.194 : en:01:41:57.194

Avdump:

File: D:\Фильмы\Macho.i.Botan.2.2014.BDRip.720p.mkv
Duration: 01:51:57 (6716.75)
Track #1: video
lang: Unknown (1)
codc: V_MPEG4/ISO/AVC -> H264/AVC (22)
reso: 1280x536 (1281x536) -> Unknown (aka not common) anamorphic
fram: 23.976 fps
rate: 5960 kbps (5959.71)
dura: 01:51:57 (6716.63)
size: 4.66 GB (5003645652)
Track #2: audio (|????????????, Blu-ray CEE|)
lang: rus -> Russian (15)
codc: A_AC3 -> AC3 (2)
chan: 6 -> 5.1 Surround
samp: 48000 Hz
rate: 640 kbps (640.04)
dura: 01:51:57 (6716.67)
size: 512.47 MB (537367163)
Track #3: audio (|?????????????????????? ????????????????????, A.??????????????|)
lang: rus -> Russian (15)
codc: A_DTS -> DTS (13)
chan: 6 -> 5.1 Surround
samp: 48000 Hz
rate: 1509 kbps (1509.10)
dura: 01:51:57 (6716.73)
size: 1.18 GB (1267027205)
Track #4: audio (|????????????, Blu-ray CEE|)
lang: ukr -> Unknown (1)
codc: A_AC3 -> AC3 (2)
chan: 6 -> 5.1 Surround
samp: 48000 Hz
rate: 640 kbps (640.04)
dura: 01:51:57 (6716.67)
size: 512.47 MB (537367169)
Track #5: audio
lang: Unknown (1)
codc: A_DTS -> DTS (13)
chan: 6 -> 5.1 Surround
samp: 48000 Hz
rate: 1509 kbps (1509.11)
dura: 01:51:57 (6716.65)
size: 1.18 GB (1267021171)
Track #6: audio (Commentary with directors Phil Lord & Chris Miller, Jonah Hill and Channing Tatum)
lang: Unknown (1)
codc: A_AC3 -> AC3 (2)
chan: 2 -> Stereo
samp: 48000 Hz
rate: 192 kbps (192.04)
dura: 01:51:57 (6716.67)
size: 153.76 MB (161229922)
Track #7: subtitles (Forced)
lang: rus -> Russian (15)
type: S_TEXT/UTF8 -> SRT (3)
size: 915.00 B (915)
Track #8: subtitles
lang: rus -> Russian (15)
type: S_TEXT/UTF8 -> SRT (3)
size: 88.31 KB (90426)
Track #9: subtitles
lang: Unknown (1)
type: S_TEXT/UTF8 -> SRT (3)
size: 71.51 KB (73230)
Track #10: subtitles (Commentary)
lang: Unknown (1)
type: S_TEXT/UTF8 -> SRT (3)
size: 108.59 KB (111199)
Sizes: (check sanity)
disk: 8.17 GB (8777171200)
trac: 4.17 GB (4478966756) [based on track size]
bitr: 8.17 GB (8773625933) [based on bitrate]
tdif: 4.00 GB (4298204444) 48.97%
bdif: 3.38 MB (3545266) 0.04%

Знаете ли вы, что...:

• Когда Шмидт едет на Lamborghini Murcielago, он говорит, что чувствует себя Бэтменом. В фильме «Бэтмен: Начало» (2005) Бэтмен ездил на Lamborghini Murcielago Roadster, а в фильме «Темный рыцарь» (2008) Бэтмен ездил на Lamborghini Murcielago LP640.
• Вильгельмов крик доносится из лаборатории робототехники, когда Шмидт и Дженко вламываются в нее, убегая от «Призрака».
• В сценах во время весенних каникул можно заметить клуб/ресторан с названием «Gringo Pendejos», которое переводится примерно как «Тупицы американцы».
• Из-за своих обязательств перед фильмом «Лего. Фильм» (2014) режиссеры Фил Лорд и Кристофер Миллер не вносили никаких корректив в сценарий до начала съемок.
• Уайатт Расселл отклонил роль в сиквелах «Голодных игр» в пользу «Мачо и ботан 2».
• Шмидт говорит, что новый офис капитана Диксона выглядит как кубик льда (cube of ice). Актер, который исполняет роль Диксона, — это Айс Кьюб (Ice Cube).
• Во время первой игры Дженко с Зуком, кто-то выкрикивает «Омаха» (Omaha) – это намек на Пейтона Мэннинга, который выкрикивал это слово во время игр плей-офф НФЛ 2014 года.
• Сцены в финальных титрах были отсняты за один день, во время пост-продакшна, и смонтированы за месяц до выхода фильма в прокат.
• Когда в начале фильма герои разговаривают с шефом полиции то Дженко (Ченнинг Татум) заявляет, что не против, если бы его взяли на секретную службу — защищать Белый дом. Это отсылка к его предыдущему фильму — «Штурм Белого дома» (2013) — где он как раз и играл агента, защищающего Белый дом.
• Сет Роген появляется в качестве замены Джоны Хилла в конце фильма, в сценах пародии на сиквел. Одна из ранних ролей Хилла – это Сет в фильме «SuperПерцы» (2007), персонаж, которого Роген думал сыграть сам, когда начинал писать сценарий, будучи подростком.

Ошибки в фильме:

• Во время сцены, где Зук говорит Дженко, что хочет, чтобы тот присоединился к братству, на гирях виден логотип Тулейнского университета.
• Сразу после сцены в библиотеке, когда Дженко прыгает через перила, видно, что его ботинки на плоской подошве, а должны быть бутсы.
• В сцене, где Шмидт и Дженко находятся в мансарде дома братства, они держат планшет, с которого играет музыка, но по иконке на экране видно, что его звук выключен. Также в сцене, где набирают текст на смартфоне, слышны звуки от нажатия, но на экране устройства видна иконка, говорящая о том, что его звук выключен.
• Когда Шмидт и Дженко приходят к профессору психологии, на табличке на его двери написано «Майкл П. Мёрфи». Позже, на пресс-конференции, Харди произносит его имя неправильно — «Карл Мёрфи».
Скриншоты:

дополнительные скриншоты:

[Цитировать]



Показать сообщения:    

Текущее время: 04-Дек 11:14

Часовой пояс: UTC + 3


Вы не можете начинать темы
Вы не можете отвечать на сообщения
Вы не можете редактировать свои сообщения
Вы не можете удалять свои сообщения
Вы не можете голосовать в опросах
Вы не можете прикреплять файлы к сообщениям
Вы не можете скачивать файлы

!ВНИМАНИЕ!
Сайт не предоставляет электронные версии произведений, а занимается лишь коллекционированием и каталогизацией ссылок, присылаемых и публикуемых на форуме нашими читателями. Если вы являетесь правообладателем какого-либо представленного материала и не желаете, чтобы ссылка на него находилась в нашем каталоге, свяжитесь с нами, и мы незамедлительно удалим ее. Файлы для обмена на трекере предоставлены пользователями сайта, и администрация не несет ответственности за их содержание. Просьба не заливать файлы, защищенные авторскими правами, а также файлы нелегального содержания!