[ Сегодня идет свободное скачивание без начисления Download ]


Статистика раздачи
Нет
 
   
 
Top  
 
 
-Мачо и ботан 2 / 22 Jump Street (2014) BDRip
«Копам под прикрытием крыша не нужна»
- Год выпуска: 2014
Производство: США / 33andout, Columbia Pictures
Жанр: Комедия, боевик, криминал
Описание фильма:
Офицерам Шмидту и Дженко теперь предстоит работать под прикрытием в местном колледже. Однако когда Дженко встречает родственную душу в футбольной команде, а Шмидт проникает в богемную среду, они начинают сомневаться в их товариществе…
Режиссер: Фил Лорд / Phil Lord, Кристофер Миллер / Christopher Miller
Продюсер: Джона Хилл, Нил Х. Мориц, Ченнинг Татум
Актеры: Джона Хилл, Ченнинг Татум, Петер Стормаре, Уайатт Расселл, Эмбер Стивенс, Джиллиан Белл, Айс Кьюб, братья Лукас, Ник Офферман, Джимми Татро
Язык: Русский, украинский, английский
Перевод: Дублированный [лицензия]
Вид субтитров: Вшитые отключаемые
Язык субтитров: Русский (forced, full), английский (full, commentary)

Дата мировой премьеры: 5 июня 2014
Дата российской премьеры: 3 июля 2014, «WDSSPR»
Дата выхода DVD релиза: 16 октября 2014, «CP Дистрибуция»
Дата выхода Blu-ray релиза: 16 октября 2014, «CP Дистрибуция»
Рейтинг MPAA: R
Возраст: 16+
Продолжительность: 01:51:56
Качество видео: BDRip [MediaClub]
Видео: MPEG-4 AVC/H.264 (High Profile 4.1), 1920x802 (2.40:1), ~8500 kbps (0.230 bit/pixel), 23.976 fps
Аудио 1: AC3 5.1, 640 kbps, 48 kHz, 16-bit [Русский - дублированный «Blu-ray CEE»]
Аудио 2: AC3 5.1, 640 kbps, 48 kHz, 16-bit [Украинский - дублированный «Blu-ray CEE»]
Аудио 3: DTS 5.1, 1536 kbps, 48 kHz, 16-bit [Английский - оригинал]
Аудио 4: AC3 2.0, 192 kbps, 48 kHz, 16-bit [Английский - комментарий]

x264 log

x264 [info]: frame I:1774 Avg QP:15.16 size:202923
x264 [info]: frame P:43044 Avg QP:18.06 size: 81642
x264 [info]: frame B:116222 Avg QP:19.53 size: 28041
x264 [info]: consecutive B-frames: 5.3% 5.9% 12.2% 32.5% 12.2% 19.8% 5.1% 6.3% 0.5% 0.1%

MediaInfo

Полное имя : D:\Мачо.и.ботан.2-22.Jump.Street.(2014).BDRip.[1080p].mkv
Формат : Matroska
Версия формата : Version 2
Размер файла : 8,98 Гбайт
Продолжительность : 1 ч. 51 м.
Общий поток : 11,5 Мбит/сек
Название фильма : 22 Jump Street (2014)
Дата кодирования : UTC 2014-10-11 09:06:50
Программа кодирования : mkvmerge v5.7.0 ('The Whirlwind') built on Aug 7 2012 14:11:40
Библиотека кодирования : libebml v1.2.3 + libmatroska v1.3.0
Attachment : Yes
Видео
Идентификатор : 1
Формат : AVC
Формат/Информация : Advanced Video Codec
Профиль формата : High@L4.1
Параметр CABAC формата : Да
Параметр ReFrames формата : 5 кадров
Идентификатор кодека : V_MPEG4/ISO/AVC
Битрейт : 8500 Кбит/сек
Ширина : 1920 пикселей
Высота : 802 пикселя
Соотношение сторон : 2,40:1
Режим частоты кадров : Переменный
Частота кадров в оригинале : 23,976 кадра/сек
Цветовое пространство : YUV
Субдискретизация насыщенности : 4:2:0
Битовая глубина : 8 бит
Тип развёртки : Прогрессивная
Бит/(Пиксели*Кадры) : 0.230
Заголовок : Мачо.и.ботан.2-22.Jump.Street.(2014).BDRip.[1080p]
Библиотека кодирования : x264 core 142 r2431+42 c69a006 tMod [8-bit@4:2:0 X86_64]
Настройки программы : cabac=1 / ref=5 / deblock=1:-3:-3 / analyse=0x3:0x113 / me=umh / subme=11 / psy=1 / fade_compensate=0.00 / psy_rd=1.00:0.20 / mixed_ref=1 / me_range=32 / chroma_me=1 / trellis=2 / 8x8dct=1 / cqm=0 / deadzone=21,11 / fast_pskip=0 / chroma_qp_offset=-3 / threads=12 / lookahead_threads=2 / sliced_threads=0 / nr=0 / decimate=0 / interlaced=0 / bluray_compat=0 / constrained_intra=0 / fgo=0 / bframes=9 / b_pyramid=2 / b_adapt=2 / b_bias=0 / direct=3 / weightb=1 / open_gop=0 / weightp=2 / keyint=240 / keyint_min=23 / scenecut=40 / intra_refresh=0 / rc=2pass / mbtree=0 / bitrate=8500 / ratetol=1.0 / qcomp=0.60 / qpmin=0:0:0 / qpmax=69:69:69 / qpstep=4 / cplxblur=20.0 / qblur=0.5 / ip_ratio=1.40 / pb_ratio=1.30 / aq=4:0.80 / aq-sensitivity=10.00 / aq-factor=1.00:1.00:1.00 / aq2=0 / aq3=0
Язык : English
Default : Да
Forced : Нет
Аудио #1
Идентификатор : 2
Формат : AC-3
Формат/Информация : Audio Coding 3
Расширение режима : CM (complete main)
Параметр Endianness формата : Big
Идентификатор кодека : A_AC3
Продолжительность : 1 ч. 51 м.
Вид битрейта : Постоянный
Битрейт : 640 Кбит/сек
Каналы : 6 каналов
Расположение каналов : Front: L C R, Side: L R, LFE
Частота : 48,0 КГц
Битовая глубина : 16 бит
Метод сжатия : С потерями
Размер потока : 512 Мбайт (6%)
Заголовок : AC3 5.1 / 640 kbps / Dub (Blu-ray CEE)
Язык : Russian
Default : Да
Forced : Нет
Аудио #2
Идентификатор : 3
Формат : AC-3
Формат/Информация : Audio Coding 3
Расширение режима : CM (complete main)
Параметр Endianness формата : Big
Идентификатор кодека : A_AC3
Продолжительность : 1 ч. 51 м.
Вид битрейта : Постоянный
Битрейт : 640 Кбит/сек
Каналы : 6 каналов
Расположение каналов : Front: L C R, Side: L R, LFE
Частота : 48,0 КГц
Битовая глубина : 16 бит
Метод сжатия : С потерями
Размер потока : 512 Мбайт (6%)
Заголовок : AC3 5.1 / 640 kbps / Dub (Blu-ray CEE)
Язык : Ukrainian
Default : Нет
Forced : Нет
Аудио #3
Идентификатор : 4
Формат : DTS
Формат/Информация : Digital Theater Systems
Идентификатор кодека : A_DTS
Продолжительность : 1 ч. 51 м.
Вид битрейта : Постоянный
Битрейт : 1510 Кбит/сек
Каналы : 6 каналов
Расположение каналов : Front: L C R, Side: L R, LFE
Частота : 48,0 КГц
Битовая глубина : 16 бит
Метод сжатия : С потерями
Размер потока : 1,18 Гбайт (13%)
Заголовок : DTS 5.1 / 1536 kbps / Original
Язык : English
Default : Нет
Forced : Нет
Аудио #4
Идентификатор : 5
Формат : AC-3
Формат/Информация : Audio Coding 3
Профиль формата : Dolby Digital
Расширение режима : CM (complete main)
Параметр Endianness формата : Big
Идентификатор кодека : A_AC3
Продолжительность : 1 ч. 51 м.
Вид битрейта : Постоянный
Битрейт : 192 Кбит/сек
Каналы : 2 канала
Расположение каналов : Front: L R
Частота : 48,0 КГц
Битовая глубина : 16 бит
Метод сжатия : С потерями
Размер потока : 154 Мбайт (2%)
Заголовок : AC3 2.0 / 192 kbps / Commentary
Язык : English
Default : Нет
Forced : Нет
Текст #1
Идентификатор : 6
Формат : UTF-8
Идентификатор кодека : S_TEXT/UTF8
Идентификатор кодека/Информация : UTF-8 Plain Text
Заголовок : Forced
Язык : Russian
Default : Да
Forced : Нет
Текст #2
Идентификатор : 7
Формат : UTF-8
Идентификатор кодека : S_TEXT/UTF8
Идентификатор кодека/Информация : UTF-8 Plain Text
Заголовок : Full
Язык : Russian
Default : Нет
Forced : Нет
Текст #3
Идентификатор : 8
Формат : UTF-8
Идентификатор кодека : S_TEXT/UTF8
Идентификатор кодека/Информация : UTF-8 Plain Text
Заголовок : Full
Язык : English
Default : Нет
Forced : Нет
Текст #4
Идентификатор : 9
Формат : UTF-8
Идентификатор кодека : S_TEXT/UTF8
Идентификатор кодека/Информация : UTF-8 Plain Text
Заголовок : Commentary
Язык : English
Default : Нет
Forced : Нет
Меню
00:00:00.000 : en:Chapter 01
00:06:21.798 : en:Chapter 02
00:13:09.371 : en:Chapter 03
00:19:57.362 : en:Chapter 04
00:26:32.173 : en:Chapter 05
00:31:30.096 : en:Chapter 06
00:36:47.246 : en:Chapter 07
00:43:49.251 : en:Chapter 08
00:51:46.394 : en:Chapter 09
00:58:58.409 : en:Chapter 10
01:07:30.588 : en:Chapter 11
01:16:28.250 : en:Chapter 12
01:23:02.602 : en:Chapter 13
01:29:51.677 : en:Chapter 14
01:35:25.469 : en:Chapter 15
01:41:57.194 : en:Chapter 16
Скриншоты:

Дополнительные скриншоты


[Цитировать]



Показать сообщения:    

Текущее время: 08-Дек 15:01

Часовой пояс: UTC + 3


Вы не можете начинать темы
Вы не можете отвечать на сообщения
Вы не можете редактировать свои сообщения
Вы не можете удалять свои сообщения
Вы не можете голосовать в опросах
Вы не можете прикреплять файлы к сообщениям
Вы не можете скачивать файлы

!ВНИМАНИЕ!
Сайт не предоставляет электронные версии произведений, а занимается лишь коллекционированием и каталогизацией ссылок, присылаемых и публикуемых на форуме нашими читателями. Если вы являетесь правообладателем какого-либо представленного материала и не желаете, чтобы ссылка на него находилась в нашем каталоге, свяжитесь с нами, и мы незамедлительно удалим ее. Файлы для обмена на трекере предоставлены пользователями сайта, и администрация не несет ответственности за их содержание. Просьба не заливать файлы, защищенные авторскими правами, а также файлы нелегального содержания!