[ Сегодня идет свободное скачивание без начисления Download ]


Статистика раздачи
Нет
 
   
 
Top  
 
 
-Чернобыль: Зона отчуждения (2014) WEB-DLRip (Сезон 1, серии 1-4 из 8)- Производство: "СинеЛаб Продакшн", Россия
Год выпуска: 2014
Жанр: Триллер
Режиссер: Андерс Банке
Актеры: Кристина Казинская, Анвар Халилулаев, Сергей Романович, Евгений Стычкин, Валерия Дмитриева, Константин Давыдов, Илья Щербинин, Николай Иванов, Дарья Лузина, Евгения Каверау
Описание фильма:
Пятеро молодых людей прыгают в старую «Волгу» и отправляются на поиски вора, часом ранее укравшего из квартиры родителей главного героя восемь миллионов рублей. Грабитель — обычный московский айтишник, — вместо того чтобы залечь на дно, тут же записывает видеоотчет, в котором сообщает, что финальная точка его путешествия — Чернобыльская АЭС и город Припять.

Дата российской премьеры: 13.10.2014
Продолжительность: ~ 00:54:00 серия
Качество видео: WEB-DLRip
Видеокодек: Xvid
Битрейт видео: ~1800 Kbps
Размер кадра: 720x400 (16:9)
Аудиокодек: AC3
Битрейт аудио: 2 ch, 192 Kbps

MediaInfo:

Общее
Полное имя : E:\DOWNLOADS\Чернобыль. Зона отчуждения (1 сезон) 2014 WEB-DLRip\Чернобыль. Зона отчуждения - 01 серия.avi
Формат : AVI
Формат/Информация : Audio Video Interleave
Размер файла : 768 Мбайт
Продолжительность : 53 м.
Общий поток : 2002 Кбит/сек
Программа кодирования : VirtualDubMod 1.5.10.3 | [url=http://www.virtualdub-fr.org]www.virtualdub-fr.org[/url] || (build 2550/release)
Библиотека кодирования : VirtualDubMod build 2550/release
Видео
Идентификатор : 0
Формат : MPEG-4 Visual
Профиль формата : Advanced [email protected]
Параметр BVOP формата : 1
Параметр QPel формата : Нет
Параметр GMC формата : Без точки перехода
Параметр матрицы формата : Default (MPEG)
Идентификатор кодека : XVID
Идентификатор кодека/Подсказка : XviD
Продолжительность : 53 м.
Битрейт : 1800 Кбит/сек
Ширина : 720 пикселей
Высота : 400 пикселей
Соотношение сторон : 16:9
Частота кадров : 25,000 кадров/сек
Цветовое пространство : YUV
Субдискретизация насыщенности : 4:2:0
Битовая глубина : 8 бит
Тип развёртки : Прогрессивная
Метод сжатия : С потерями
Бит/(Пиксели*Кадры) : 0.250
Размер потока : 690 Мбайт (90%)
Библиотека кодирования : XviD 73
Аудио
Идентификатор : 1
Формат : AC-3
Формат/Информация : Audio Coding 3
Расширение режима : CM (complete main)
Параметр Endianness формата : Big
Идентификатор кодека : 2000
Продолжительность : 53 м.
Вид битрейта : Постоянный
Битрейт : 192 Кбит/сек
Каналы : 2 канала
Расположение каналов : Front: L R
Частота : 48,0 КГц
Битовая глубина : 16 бит
Метод сжатия : С потерями
Размер потока : 73,6 Мбайт (10%)
Выравнивание : Разделение по промежуткам
Продолжительность промежутка : 40 мс. (1,00 видеокадр)
Время предзагрузки промежутка : 500 мс.

Описание обновления торрента

Внимание! Раздача ведётся путём добавления новых серий; при каждом добавлении создётся новый торрент. Чтобы начать докачку новой серии, пользователям необходимо сделать следующее:
1. Остановить скачивание.
2. Удалить старый торрент у себя из клиента (старые серии удалять не надо).
3. Скачать новый торрент и запустить его у себя в клиенте вместо старого, при этом указать клиенту путь в старую папку куда и должно происходить скачивание новых серий.
Ваш клиент при этом должен произвести хеширование (проверку) старой папки (если не производит сам - помогите ему сделать это), и будет докачивать только те серии которых у вас ещё нет. Старые серии при этом не удаляются, а продолжают раздаваться!
Eсли вы уже удалили старые серии, то предотвратить повторную закачку старых серий можно, отжав галочку в соответсвующих местах при запуске нового торрента. По возможности, желательно не удалять старые серии как можно дольше чтобы релизёр не столько продолжал раздавать старые серии, а смог сконцентрироваться на новых.
Время раздачи: c 10.00 до 20.00

[Цитировать]



Показать сообщения:    

Текущее время: 04-Дек 23:26

Часовой пояс: UTC + 3


Вы не можете начинать темы
Вы не можете отвечать на сообщения
Вы не можете редактировать свои сообщения
Вы не можете удалять свои сообщения
Вы не можете голосовать в опросах
Вы не можете прикреплять файлы к сообщениям
Вы не можете скачивать файлы

!ВНИМАНИЕ!
Сайт не предоставляет электронные версии произведений, а занимается лишь коллекционированием и каталогизацией ссылок, присылаемых и публикуемых на форуме нашими читателями. Если вы являетесь правообладателем какого-либо представленного материала и не желаете, чтобы ссылка на него находилась в нашем каталоге, свяжитесь с нами, и мы незамедлительно удалим ее. Файлы для обмена на трекере предоставлены пользователями сайта, и администрация не несет ответственности за их содержание. Просьба не заливать файлы, защищенные авторскими правами, а также файлы нелегального содержания!