[ Сегодня идет свободное скачивание без начисления Download ]


Статистика раздачи
Нет
 
   
 
Top  
 
 
-Профиль убийцы / Profile of a Killer (2012) HDTVRip
« Attention is power »
- Год выпуска: 2012
Производство: США | Metamorphosis Make-Up Artistry
Жанр: Триллер
Описание фильма:
Холодные воды реки выносят на берег 4 человеческих скелета. Результаты экспертизы свидетельствуют о том, что жертвы убиты недавно. Полиция начинает расследование и приглашает в помощь психолога из ФБР…
Режиссер: Кэспиан Тредуэлл-Оуэн
Актеры: Джои Поллари, Эмили Фраденбург, Дастин Бут, Кен Мельхиор, Чандра Майклс, Софи Элиз Бристер, Крис Карлсон, Кирстен Грегерсон, Роберт Ларсен
Продолжительность: 01:31:51
Качество видео: HDTVRip
Перевод: Двуголосый закадровый, профессиональный
Автор перевода: НТВ+
Язык субтитров: Отсутствуют

Дата мировой премьеры: 18 ноября 2012
Видео: 720x400 (16:9), 25 fps, XviD build 65 ~1817 kbps avg, 0.252 bit/pixel
Аудио: 48 kHz, AC3 Dolby Digital, 3/2 (L,C,R,l,r) + LFE ch, ~448 kbps
Сэмпл: Скачать

MediaInfo

General
Complete name                  : D:\фильмы\Profil.ubijtsy.2012.HDTVRip.avi
Format                         : AVI
Format/Info                    : Audio Video Interleave
File size                      : 1.46 GiB
Duration                       : 1h 31mn
Overall bit rate               : 2 274 Kbps
Movie name                     : MediaClub
Writing application            : VirtualDubMod 1.5.10.2 (build 2540/release)
Writing library                : VirtualDubMod build 2540/release
Video
ID                             : 0
Format                         : MPEG-4 Visual
Format profile                 : Advanced [email protected]
Format settings, BVOP          : Yes
Format settings, QPel          : No
Format settings, GMC           : No warppoints
Format settings, Matrix        : Default (MPEG)
Codec ID                       : XVID
Codec ID/Hint                  : XviD
Duration                       : 1h 31mn
Bit rate                       : 1 817 Kbps
Width                          : 720 pixels
Height                         : 400 pixels
Display aspect ratio           : 16:9
Frame rate                     : 25.000 fps
Color space                    : YUV
Chroma subsampling             : 4:2:0
Bit depth                      : 8 bits
Scan type                      : Progressive
Compression mode               : Lossy
Bits/(Pixel*Frame)             : 0.252
Stream size                    : 1.17 GiB (80%)
Writing library                : XviD 65
Audio
ID                             : 1
Format                         : AC-3
Format/Info                    : Audio Coding 3
Mode extension                 : CM (complete main)
Format settings, Endianness    : Big
Codec ID                       : 2000
Duration                       : 1h 31mn
Bit rate mode                  : Constant
Bit rate                       : 448 Kbps
Channel(s)                     : 6 channels
Channel positions              : Front: L C R, Side: L R, LFE
Sampling rate                  : 48.0 KHz
Bit depth                      : 16 bits
Compression mode               : Lossy
Stream size                    : 294 MiB (20%)
Alignment                      : Split accross interleaves
Interleave, duration           : 40 ms (1.00 video frame)
Interleave, preload duration   : 500 ms
Скриншоты:

Время раздачи: 10:00 - 24:00

[Цитировать]



Показать сообщения:    

Текущее время: 05-Дек 07:29

Часовой пояс: UTC + 3


Вы не можете начинать темы
Вы не можете отвечать на сообщения
Вы не можете редактировать свои сообщения
Вы не можете удалять свои сообщения
Вы не можете голосовать в опросах
Вы не можете прикреплять файлы к сообщениям
Вы не можете скачивать файлы

!ВНИМАНИЕ!
Сайт не предоставляет электронные версии произведений, а занимается лишь коллекционированием и каталогизацией ссылок, присылаемых и публикуемых на форуме нашими читателями. Если вы являетесь правообладателем какого-либо представленного материала и не желаете, чтобы ссылка на него находилась в нашем каталоге, свяжитесь с нами, и мы незамедлительно удалим ее. Файлы для обмена на трекере предоставлены пользователями сайта, и администрация не несет ответственности за их содержание. Просьба не заливать файлы, защищенные авторскими правами, а также файлы нелегального содержания!