[ Сегодня идет свободное скачивание без начисления Download ]


Статистика раздачи
Нет
 
   
 
Top  
 
 
-Укради мою жену / Life of Crime (2013) BDRip- Год выпуска: 2013
Производство: США - Abbolita Productions
Жанр: Комедия, криминал
Перевод: Многоголосый закадровый, любительский |студия "Paradox"|
Субтитры: Вшитые отключаемые
Язык субтитров: Английский
Дата мировой премьеры: 14 сентября 2013
Дата российской премьеры: 16 октября 2014, «Централ Партнершип»
Режиссер: Дэниэл Шехтер
Актеры: Дженнифер Энистон, Мос Деф, Айла Фишер, Уилл Форте, Марк Бун Джуниор, Тим Роббинс, Джон Хоукс, Клеа Льюис, Чарли Тахэн, Кевин Корригэн
Описание фильма:
Орделл Робб и Луис Гарра познакомились за решеткой, сев за одинаковые преступления — угон. Теперь они на свободе и готовят крупное дело: похищение жены детройтского девелопера с целью получения выкупа. Но им и в голову не могло прийти, что бедный, как церковная мышь, супруг не захочет вызволять благоверную. И тогда наступает время для запасного плана: настоящего убийства не без помощи жаждущей мести домохозяйки.

Продолжительность: 01:40:49
Качество видео: BDRip 1080p
Видео: H264, 12.3 Мбит/с, 1920x804, 23.976 кадр/с
Аудио #1: Русский: AC3, 2.0, 384 Кбит/с, 48kHz, 16 bit
Аудио #2: Английский: DTS, 5.1, 1536 Кбит/с, 48 kHz, 24 bit
Сохранены оригинальные чаптеры как на Blu-Ray

Интересно:

Знаете ли вы, что...
* На съемках Энистон получила сильный удар в челюсть. Инцидент произошел во время съемок сцены драки с участием актера Джона Хоукса и рэпера Данте Смита, более известного под псевдонимом Мос Деф. По сюжету Энистон пытается разнять дерущихся мужчин. Однако в процессе съемок один из актеров случайно ударил кинозвезду в челюсть. Удар оказался настолько сильным, что Энистон просто рухнула на пол.
* В 1986 году за этот проект бралась студия 20th Century Fox. Дайан Китон должна была сыграть в нем роль Микки Доусон. Но тогда проект был заморожен, так как его сочли слишком похожим на фильм «Безжалостные люди» (1986).

Ошибки в фильме

* В сцене на Багамах используются мячи для гольфа «Noodle Long and Soft». Такие мячи появились лишь 25 лет спустя, и в то время, когда разворачиваются события фильма, их быть не могло.

MediaInfo:

Общее
Уникальный идентификатор : 216841446958289609661304613526625943891 (0xA32224C230F2DBE8BBA6599DB9258153)
Полное имя : D:\Video\Life.of.Crime.2013.BDRip.1080p.mkv
Формат : Matroska
Версия формата : Version 4 / Version 2
Размер файла : 10,2 Гбайт
Продолжительность : 1 ч. 40 м.
Общий поток : 14,4 Мбит/сек
Дата кодирования : UTC 2014-10-16 12:50:07
Программа кодирования : mkvmerge v7.2.0 ('On Every Street') 64bit built on Sep 13 2014 15:52:10
Библиотека кодирования : libebml v1.3.0 + libmatroska v1.4.1
Видео
Идентификатор : 1
Формат : AVC
Формат/Информация : Advanced Video Codec
Профиль формата : [email protected]
Параметр CABAC формата : Да
Параметр ReFrames формата : 5 кадров
Идентификатор кодека : V_MPEG4/ISO/AVC
Продолжительность : 1 ч. 40 м.
Битрейт : 12,3 Мбит/сек
Ширина : 1920 пикселей
Высота : 804 пикселя
Соотношение сторон : 2,40:1
Частота кадров : 23,976 кадра/сек
Цветовое пространство : YUV
Субдискретизация насыщенности : 4:2:0
Битовая глубина : 8 бит
Тип развёртки : Прогрессивная
Бит/(Пиксели*Кадры) : 0.331
Размер потока : 8,64 Гбайт (85%)
Библиотека кодирования : x264 core 142 r2479kMod dd79a61
Настройки программы : cabac=1 / ref=5 / deblock=1:-3:-3 / analyse=0x3:0x133 / me=umh / subme=10 / psy=1 / fade_compensate=0.00 / psy_rd=1.00:0.00 / mixed_ref=1 / me_range=24 / chroma_me=1 / trellis=2 / 8x8dct=1 / cqm=0 / deadzone=21,11 / fast_pskip=0 / chroma_qp_offset=-2 / threads=18 / lookahead_threads=4 / sliced_threads=0 / nr=0 / decimate=0 / interlaced=0 / bluray_compat=0 / constrained_intra=0 / fgo=0 / bframes=10 / b_pyramid=2 / b_adapt=2 / b_bias=0 / direct=3 / weightb=1 / open_gop=0 / weightp=2 / keyint=250 / keyint_min=23 / scenecut=40 / intra_refresh=0 / rc=crf / mbtree=0 / crf=16.3000 / qcomp=0.75 / qpmin=0 / qpmax=69 / qpstep=4 / ip_ratio=1.30 / pb_ratio=1.20 / aq=1:0.80
Язык : English
Default : Да
Forced : Нет
Аудио #1
Идентификатор : 2
Формат : AC-3
Формат/Информация : Audio Coding 3
Расширение режима : CM (complete main)
Идентификатор кодека : A_AC3
Продолжительность : 1 ч. 40 м.
Вид битрейта : Постоянный
Битрейт : 384 Кбит/сек
Каналы : 2 канала
Расположение каналов : Front: L R
Частота : 48,0 КГц
Битовая глубина : 16 бит
Метод сжатия : С потерями
Размер потока : 277 Мбайт (3%)
Заголовок : студия "Paradox"]
Язык : Russian
Default : Да
Forced : Да
Аудио #2
Идентификатор : 3
Формат : DTS
Формат/Информация : Digital Theater Systems
Идентификатор кодека : A_DTS
Продолжительность : 1 ч. 40 м.
Вид битрейта : Постоянный
Битрейт : 1510 Кбит/сек
Каналы : 6 каналов
Расположение каналов : Front: L C R, Side: L R, LFE
Частота : 48,0 КГц
Битовая глубина : 24 бит
Метод сжатия : С потерями
Размер потока : 1,06 Гбайт (10%)
Язык : English
Default : Нет
Forced : Нет
Текст #1
Идентификатор : 4
Формат : UTF-8
Идентификатор кодека : S_TEXT/UTF8
Идентификатор кодека/Информация : UTF-8 Plain Text
Язык : Russian
Default : Да
Forced : Да
Текст #2
Идентификатор : 5
Формат : UTF-8
Идентификатор кодека : S_TEXT/UTF8
Идентификатор кодека/Информация : UTF-8 Plain Text
Язык : English
Default : Нет
Forced : Нет
Меню
00:00:00.000 : en:00:00:00.000
00:06:22.465 : en:00:06:22.465
00:12:52.438 : en:00:12:52.438
00:19:13.110 : en:00:19:13.110
00:26:24.750 : en:00:26:24.750
00:32:54.347 : en:00:32:54.347
00:38:40.818 : en:00:38:40.818
00:44:30.418 : en:00:44:30.418
00:52:46.455 : en:00:52:46.455
00:59:22.476 : en:00:59:22.476
01:03:57.500 : en:01:03:57.500
01:12:24.674 : en:01:12:24.674
01:17:48.122 : en:01:17:48.122
01:25:22.659 : en:01:25:22.659
01:30:31.009 : en:01:30:31.009
01:34:57.567 : en:01:34:57.567

Рецензия:

Дело было вечером. Сначала, я думал, смотреть фильм или нет. Программа у меня уже была, и заключалась она в просмотре «Навстречу шторму». Но все же, пришлось изменить планы, когда я узнал о том, что этот фильм — один из самых ожидаемых! Конечно я был на 100% за, легкая комедия вечерком никому не помешает. Правда, актеров, кроме Дженнифер Энистон, из фильма, не знал.
Жанр тут отметили, как криминальная комедия. Я не согласен. Смеяться почти не приходилось (ну разве что, очень редко). Если и называть это комедией, то тогда уже криминальным, слегка комедийным, триллером.
Детройт. 1978 год. Три взрослых мужчины, это Орделл, Луис и их помощник, фашист-антисемит, любящий Вторую Мировую, решили украсть жену у богатого спортсмена и девелопера, который недавно получил приз по гольфу. Операция начинается, когда муж Микки Доусон уезжает в свои апартаменты, к любовнице Мелони. Орделл и Луис в масках носатого чувака и крысы проникают в дом, где сейчас Микки и похищают ее (без косяка не обошлось, пришлось вырубить ее друга-поклонника). Но позже оказывается, что ее муж не хочет платить выкуп размером в миллион долларов, и друзьям приходится выпутываться. В итоге между пленницей и двумя похитителями появляется дружба. А с Луисом может и что-то больше…
Мне понравилось, как воссозданы некоторые декорации семидесятых. Коренным американцам, которые родились в 197*, этот фильм может навеять ностальгию. Зрелищность у фильма огромная, а атмосфера настолько добрая, что во многих современных фильмах такую не встретишь!
Снято все очень хорошо, насчет этого можете не волноваться. У каждого героя в фильме был свой характер. Микки Доусон — очень добрая и хорошая женщина. Фрэнк Доусон — муж Микки, злой изменщик. Луис — добрый и серьезный человек. Орделл — жестокий и смешной. Ричард — тупой фашист и антисемит. Мелони — жестокая любительница напоить и переспать, со всеми подряд.
В итоге новый фильм «Укради мою жену» получился немного смешным, добрым и отличным для поднятия настроения! Я не совсем понял его названия, ведь Фрэнк не просил украсть Микки. Фильм выходит в кинотеатры 16-го октября, и я советую вам его посмотреть, как-нибудь вечерком!
8 из 10

P.S. По-флорентийски!
Скриншоты: Время раздачи: с 10:00 до 20:00 (GMT+2) - до 10 скачавшихНе забываем говорить

[Цитировать]



Показать сообщения:    

Текущее время: 04-Дек 15:20

Часовой пояс: UTC + 3


Вы не можете начинать темы
Вы не можете отвечать на сообщения
Вы не можете редактировать свои сообщения
Вы не можете удалять свои сообщения
Вы не можете голосовать в опросах
Вы не можете прикреплять файлы к сообщениям
Вы не можете скачивать файлы

!ВНИМАНИЕ!
Сайт не предоставляет электронные версии произведений, а занимается лишь коллекционированием и каталогизацией ссылок, присылаемых и публикуемых на форуме нашими читателями. Если вы являетесь правообладателем какого-либо представленного материала и не желаете, чтобы ссылка на него находилась в нашем каталоге, свяжитесь с нами, и мы незамедлительно удалим ее. Файлы для обмена на трекере предоставлены пользователями сайта, и администрация не несет ответственности за их содержание. Просьба не заливать файлы, защищенные авторскими правами, а также файлы нелегального содержания!