[ Сегодня идет свободное скачивание без начисления Download ]


Статистика раздачи
Нет
 
   
 
 
 
-Подводный коридор (Тоннель в бездну) / The Passage / La Traversee des Mondes- Режиссер / Телекомпания: Ромен Дюссоль, Дени Лагранж / Grand Angel Productions, MFP, Aloha Production
Страна: Франция
Год выпуска: 2012
Жанр: Документальный, путешествия, дайвинг
Описание: Есть места на планете, по которым никогда не скажешь где ты находишься. Между небом и землей, землей и водой, водой и небом. Есть глубины, которые ни на что не похожи, разве чт она бездонную человеческую душу. Есть места на планете, которые раскрывают кто ты есть на самом деле. Гийом Нери - фридайвер, исследователь морских глубин. Он путешествует по миру в поисках новых мест для погружений и новых ощущений. И они привели его в самое сердце цивилизации майа, на полуостров Юкатан. Как полагают ученые, здесь самая высокая концентрация карстовых воронок в мире. Местные называют их сенотами. Конкистадоры верили, что тот кто достигнет дна такой воронки, увидит самый таинственный из миров и его необыкновенные чудеса, но добраться до такой сокровищницы не просто...
Продолжительность: 00:49:57
Перевод: Двухголосый закадровый (профессиональный)
Видеокодек: MPEG-4 AVC/H.264
Битрейт видео: ~6047 Кбит/с
Размер кадра: 1280 x 720
Качество видео: HDTVRip [720p]
Аудио:
1. [русский] AC3, 2.0 ch, 192 Кбит/с (озвучено "ТПО Red Media")

MediaInfo

Общее
Уникальный идентификатор : 233033912472422381322914693033132392479 (0xAF50B2F23E36FB358F21664DAC49801F)
Полное имя : D:\Релизы\Подводный коридор.2012.HDTVRip.720p.mkv
Формат : Matroska
Версия формата : Version 2
Размер файла : 2,18 Гбайт
Продолжительность : 49 м.
Общий поток : 6239 Кбит/сек
Дата кодирования : UTC 2014-10-15 16:13:34
Программа кодирования : mkvmerge v6.1.0 ('Old Devil') built on Mar 4 2013 09:10:42
Библиотека кодирования : libebml v1.3.0 + libmatroska v1.4.0
Видео
Идентификатор : 1
Формат : AVC
Формат/Информация : Advanced Video Codec
Профиль формата : [email protected]
Параметр CABAC формата : Да
Параметр ReFrames формата : 8 кадров
Идентификатор кодека : V_MPEG4/ISO/AVC
Продолжительность : 49 м.
Битрейт : 6047 Кбит/сек
Ширина : 1280 пикселей
Высота : 720 пикселей
Соотношение сторон : 16:9
Режим частоты кадров : Постоянный
Частота кадров : 25,000 кадров/сек
Цветовое пространство : YUV
Субдискретизация насыщенности : 4:2:0
Битовая глубина : 8 бит
Тип развёртки : Прогрессивная
Бит/(Пиксели*Кадры) : 0.262
Размер потока : 2,07 Гбайт (95%)
Библиотека кодирования : x264 core 130 r2273 b3065e6
Настройки программы : cabac=1 / ref=8 / deblock=1:-3:-3 / analyse=0x3:0x113 / me=umh / subme=9 / psy=1 / psy_rd=1.00:0.20 / mixed_ref=1 / me_range=32 / chroma_me=1 / trellis=2 / 8x8dct=1 / cqm=0 / deadzone=21,11 / fast_pskip=0 / chroma_qp_offset=-3 / threads=6 / lookahead_threads=1 / sliced_threads=0 / nr=0 / decimate=1 / interlaced=0 / bluray_compat=0 / constrained_intra=0 / bframes=7 / b_pyramid=2 / b_adapt=2 / b_bias=0 / direct=3 / weightb=1 / open_gop=0 / weightp=2 / keyint=25 / keyint_min=1 / scenecut=40 / intra_refresh=0 / rc_lookahead=25 / rc=2pass / mbtree=1 / bitrate=6047 / ratetol=1.0 / qcomp=0.60 / qpmin=0 / qpmax=69 / qpstep=4 / cplxblur=20.0 / qblur=0.5 / ip_ratio=1.40 / aq=1:1.00
Default : Да
Forced : Нет
Аудио
Идентификатор : 2
Формат : AC-3
Формат/Информация : Audio Coding 3
Расширение режима : CM (complete main)
Параметр Endianness формата : Big
Идентификатор кодека : A_AC3
Продолжительность : 49 м.
Вид битрейта : Постоянный
Битрейт : 192 Кбит/сек
Каналы : 2 канала
Расположение каналов : Front: L R
Частота : 48,0 КГц
Битовая глубина : 16 бит
Метод сжатия : С потерями
Размер потока : 68,6 Мбайт (3%)
Default : Да
Forced : Нет
Скриншоты:

Дополнительные скриншоты

Пожалуйста, не уходите с раздачи - помогите докачать другим. Если понравился релиз - жмите кнопку "Спасибо"!
Время раздачи: 24 / 7
Релиз: Rip by extrimus

[Цитировать]



Показать сообщения:    

Текущее время: 06-Дек 17:11

Часовой пояс: UTC + 3


Вы не можете начинать темы
Вы не можете отвечать на сообщения
Вы не можете редактировать свои сообщения
Вы не можете удалять свои сообщения
Вы не можете голосовать в опросах
Вы не можете прикреплять файлы к сообщениям
Вы не можете скачивать файлы

!ВНИМАНИЕ!
Сайт не предоставляет электронные версии произведений, а занимается лишь коллекционированием и каталогизацией ссылок, присылаемых и публикуемых на форуме нашими читателями. Если вы являетесь правообладателем какого-либо представленного материала и не желаете, чтобы ссылка на него находилась в нашем каталоге, свяжитесь с нами, и мы незамедлительно удалим ее. Файлы для обмена на трекере предоставлены пользователями сайта, и администрация не несет ответственности за их содержание. Просьба не заливать файлы, защищенные авторскими правами, а также файлы нелегального содержания!