[ Сегодня идет свободное скачивание без начисления Download ]


Статистика раздачи
Нет
 
   
 
Top  
 
 
-Чернобыль. Зона отчуждения / (Сезон 1, серии 1-6 из 8) (2014) WEB-DLRip«Никто не вернется прежним»- Год выпуска: 2014
Жанр: мистический триллер
Производство: Синелаб Продакшн (Россия)
Телекомпания: ТНТ
Режиссер: Андерс Банке
Актеры: Кристина Казинская, Евгений Стычкин, Валерия Дмитриева, Сергей Романович, Константин Давыдов, Анвар Халилулаев, Илья Щербинин, Илья Ермолов, Михаил Куряев, Андрей Соломонов, Евгения Каверау, Ива Солоницына-Описание фильма:
«Никто не вернется прежним».
Пятеро молодых людей прыгают в старую «Волгу» и отправляются на поиски вора, часом ранее укравшего из квартиры родителей главного героя восемь миллионов рублей. Грабитель — обычный московский айтишник, — вместо того чтобы залечь на дно, тут же записывает видеоотчет, в котором сообщает, что финальная точка его путешествия — Чернобыльская АЭС и город Припять.- Скачать сэмпл
Дата российской премьеры: 13 октября 2014-Продолжительность: ~ 00:52:00 серия
Перевод: Оригинальный
Качество видео: WEB-DLRip
Формат: MP4
Видео: MPEG-4 AVC/H.264, 720x400 (16:9), ~1867 Кбит/сек
Аудио: AAC, 2 канала, ~128 Кбит/сек

MediaInfo

Полное имя : D:\Chernobyl_Zona_otchuzhdeniya_SATRip_x264_[NNM-CLUB]\1 серия.mp4
Формат : MPEG-4
Профиль формата : Base Media
Идентификатор кодека : isom
Размер файла : 767 Мбайт
Продолжительность : 53 м.
Общий поток : 2001 Кбит/сек
Программа кодирования : Lavf55.12.100
Видео
Идентификатор : 2
Формат : AVC
Формат/Информация : Advanced Video Codec
Профиль формата : High@L3.1
Параметр CABAC формата : Да
Параметр ReFrames формата : 8 кадров
Параметр GOP формата : M=1, N=12
Идентификатор кодека : avc1
Идентификатор кодека/Информация : Advanced Video Coding
Продолжительность : 53 м.
Битрейт : 1867 Кбит/сек
Ширина : 720 пикселей
Высота : 400 пикселей
Соотношение сторон : 16:9
Режим частоты кадров : Постоянный
Частота кадров : 25,000 кадров/сек
Цветовое пространство : YUV
Субдискретизация насыщенности : 4:2:0
Битовая глубина : 8 бит
Тип развёртки : Прогрессивная
Бит/(Пиксели*Кадры) : 0.259
Размер потока : 716 Мбайт (93%)
Аудио
Идентификатор : 1
Формат : AAC
Формат/Информация : Advanced Audio Codec
Профиль формата : LC
Идентификатор кодека : 40
Продолжительность : 53 м.
Duration_LastFrame : -10 мс.
Вид битрейта : Постоянный
Битрейт : 128 Кбит/сек
Каналы : 2 канала
Расположение каналов : Front: L R
Частота : 44,1 КГц
Метод сжатия : С потерями
Размер потока : 49,1 Мбайт (6%)
Раздача заменена на WEB-DLRip.-Скриншоты:
-

Внимание! Раздача ведётся путём добавления новых серий

Внимание! Раздача ведётся путём добавления новых серий; при каждом добавлении создётся новый торрент. Чтобы начать докачку новой серии, пользователям необходимо сделать следующее:
(1) остановить скачивание,
(2) удалить старый торрент у себя из клиента (старые серии удалять не надо),
(3) скачать новый торрент и запустить его у себя в клиенте вместо старого, при этом указать клиенту путь в старую папку куда и должно происходить скачивание новых серий.
Ваш клиент при этом должен произвести хеширование (проверку) старой папки (если не производит сам - помогите ему сделать это), и будет докачивать только те серии которых у вас ещё нет. Старые серии при этом не удаляются, а продолжают раздаваться!
Eсли вы уже удалили старые серии, то предотвратить повторную закачку старых серий можно, отжав галочку в соответсвующих местах при запуске нового торрента. По возможности, желательно не удалять старые серии как можно дольше чтобы релизёр не столько продолжал раздавать старые серии, а смог сконцентрироваться на новых.
-Сериал “Чернобыль. Зона отчуждения” на NNM-CLUB

[Цитировать]

Топик был перенесен из форума Новинки кинопроката в форум Отечественные сериалы
Henkok



Показать сообщения:    

Текущее время: 08-Дек 19:04

Часовой пояс: UTC + 3


Вы не можете начинать темы
Вы не можете отвечать на сообщения
Вы не можете редактировать свои сообщения
Вы не можете удалять свои сообщения
Вы не можете голосовать в опросах
Вы не можете прикреплять файлы к сообщениям
Вы не можете скачивать файлы

!ВНИМАНИЕ!
Сайт не предоставляет электронные версии произведений, а занимается лишь коллекционированием и каталогизацией ссылок, присылаемых и публикуемых на форуме нашими читателями. Если вы являетесь правообладателем какого-либо представленного материала и не желаете, чтобы ссылка на него находилась в нашем каталоге, свяжитесь с нами, и мы незамедлительно удалим ее. Файлы для обмена на трекере предоставлены пользователями сайта, и администрация не несет ответственности за их содержание. Просьба не заливать файлы, защищенные авторскими правами, а также файлы нелегального содержания!