[ Сегодня идет свободное скачивание без начисления Download ]


Статистика раздачи
Нет
 
   
 
Top  
 
 
-ЗА РОДИНУ! Часть 3/4: Парень из нашего города; Последний бой майора Пугачёва; Встреча на Эльбе; Небесный тихоход; Мемуары ветеранов: память солдатская - диск 1. КОЛЛЕКЦИОННОЕ ИЗДАНИЕ. 3хDVD9+1xDVD5- Описание: Война всегда начинается внезапно. В 1941 году началась самая страшная - Великая Отечественная. День победы СССР над фашистской Германией в Великую Отечественную Войну был и остаётся одним из самых почитаемых праздников в нашей стране.
В серию сборников "За Родину" вошли фильмы наиболее полно передающие атмосферу того героического времени. Это и самые последние современные художественные фильмы о войне, документальная хроника военных лет и фильмы военного времени, ставшие классикой. Эти сборники будут интересны и молодому поколению и, безусловно, станут прекрасным подарком нашим любимым родителям.
Дополнительная информация: Это лицензионное издание на шестнадцати дисках, по четыре диска в коробке. Прилагаются сканы обложек каждой коробки с фильмом, каждой "супер-коробки", а также плакатов времён ВОВ, типа "Родина-Мать зовёт!", которыми комплектовалось это издание.
Качество: DVD9
Формат: DVD Video
Видео: PAL 4:3 (720x576) VBR
Аудио: Russian (Dolby AC3, 2 ch)Парень из нашего города- Год выпуска: 1942
Производство: СССР
Жанр: драма, военный
Продолжительность: 01:23:29
Режиссер: Александр Столпер, Борис Иванов
Сценарий: Константин Симонов
Оператор: Сергей Уралов
Композитор : Николай Крюков
Художник: Иосиф Шпинель, Арнольд Вайсфельд
Монтаж: Анна Кулганек
В ролях: Николай Крючков (Сергей Луконин), Николай Боголюбов (Аркадий Бурмин), Лидия Смирнова (Варя), Николай Мордвинов (Васнецов), Владимир Канделаки (Гулиашвили), Нина Зорская (Женя), Вадим Медведев (Петька), Александр Румнев (переводчик)

Описание: Саратовский парень Сергей Луконин летом 1932 года уезжает из районного города в далекий Омск, в танковую школу. В Саратове остается его невеста, Варенька, вскоре ставшая актрисой. В 1936 году Сергей отправляется на войну в Испанию. Ранение, плен, побег и вновь учебные бои, а впереди — июнь 1941 года…

Премьера (мир): 31 августа 1942, ...
Релиз на DVD: 7 марта 2006, «Союз-Видео», ...
Качество: DVD5
Формат: DVD Video
Видео: PAL 4:3 (720x576) VBR
Аудио: Russian (Dolby AC3, 2 ch)
Субтитры: нет

DVDInfo

Title: Elements
Size: 3.72 Gb ( 3 900 500 KBytes ) - DVD-5
Enabled regions: 1, 2, 3, 4, 5, 6, 7, 8
VTS_01 :
Play Length: 01:23:29
Video: PAL 4:3 (704x576) VBR
Audio:
English (Dolby AC3, 2 ch)
VTS_02 :
Play Length: 00:00:09
Video: PAL 4:3 (704x576) VBR

MediaInfo

Общее
Полное имя : G:\DVD\ZA_RODINU_3rd_Boxed_Set\ZA_RODINU_3rd_Boxed_Set__Paren`_Iz_Nashego_Goroda__DVD5\VIDEO_TS\VTS_01_1.VOB
Формат : MPEG-PS
Размер файла : 1000 Мбайт
Продолжительность : 22 м.
Режим общего битрейта : Переменный
Общий поток : 6202 Кбит/сек
Видео
Идентификатор : 224 (0xE0)
Формат : MPEG Video
Версия формата : Version 2
Профиль формата : Main@Main
Параметр BVOP формата : Да
Параметр матрицы формата : Выборочная
Параметр GOP формата : M=3, N=15
Продолжительность : 22 м.
Вид битрейта : Переменный
Битрейт : 5887 Кбит/сек
Максимальный битрейт : 8500 Кбит/сек
Ширина : 720 пикселей
Высота : 576 пикселей
Соотношение сторон : 4:3
Частота кадров : 25,000 кадров/сек
Стандарт вещания : PAL
Цветовое пространство : YUV
Субдискретизация насыщенности : 4:2:0
Битовая глубина : 8 бит
Тип развёртки : Чересстрочная
Порядок развёртки : Верхнее поле первое
Метод сжатия : С потерями
Бит/(Пиксели*Кадры) : 0.568
Размер потока : 949 Мбайт (95%)
Аудио
Идентификатор : 189 (0xBD)-128 (0x80)
Формат : AC-3
Формат/Информация : Audio Coding 3
Расширение режима : CM (complete main)
Параметр Endianness формата : Big
Режим смешивания : DVD-Video
Продолжительность : 22 м.
Вид битрейта : Постоянный
Битрейт : 192 Кбит/сек
Каналы : 2 канала
Расположение каналов : Front: L R
Частота : 48,0 КГц
Битовая глубина : 16 бит
Метод сжатия : С потерями
Задержка видео : -80 мс.
Размер потока : 31,0 Мбайт (3%)
Меню

Дополнительно

Бонусы: нет

Скриншоты меню

Скриншоты:
Последний бой майора Пугачева (ТВ)- Год выпуска: 2005
Производство: Россия
Жанр: боевик, драма, военный
Продолжительность: 00:47:03+00:47:20+00:48:13+00:47:24
Режиссер: Владимир Фатьянов
Сценарий: Варлам Шаламов
Продюсер: Дмитрий Воронков, Александр Черняев
Оператор: Александр Алешников
Композитор : Алексей Шелыгин
В ролях: Игорь Лифанов (майор Иван Васильевич Пугачёв), Борис Токарев (генерал Артемьев), Лев Дуров (Ярослав Матвеевич), Игорь Сигов (Поляков), Дмитрий Лабуш (Сухоруков), Анатолий Кот (Игнатович), Александр Пятков (Бобылев), Илья Соколовский (Перхушин)

Описание: Действие фильма начинается на территории Польши, в немецком концентрационном лагере, куда приезжает сам генерал Власов, чтобы агитировать советских военнопленных вступать в «Национальную Освободительную Армию», а затем — в колымских лагерях. События охватывают период с 1944-го по 1946 год, а начинаются с момента, когда майор Пугачев попадает в немецкий плен, откуда он, пренебрегая предложением Власова о возможных благах в случае добровольного перехода на сторону фашистов, совершает побег. Вместо возвращения на фронт Пугачева и его друзей ожидают допросы, клеймо «врага народа» и 25 лет колымских лагерей. Сцены пребывания Пугачева в лагерях перемежаются эпизодами воспоминаний о его детстве, школе, родном доме, жене.

Релиз на DVD: 18 февраля 2010, «Флагман-Трейд», ...
Качество: DVD9
Формат: DVD Video
Видео: PAL 4:3 (720x576) VBR
Аудио: Russian (Dolby AC3, 6 ch)
Субтитры: нет

DVDInfo

Title: Elements
Size: 7.33 Gb ( 7 684 528 KBytes ) - DVD-9
Enabled regions: 1, 2, 3, 4, 5, 6, 7, 8
VTS_01 :
Play Length: 00:00:09+00:47:03+00:47:20+00:48:13+00:47:24
Video: PAL 4:3 (704x576) VBR
Audio:
Russian (Dolby AC3, 6 ch)

MediaInfo

Общее
Полное имя : E:\DVD\ZA_RODINU_3rd_Boxed_Set\ZA_RODINU_3rd_Boxed_Set__Posledny_Boy_Mayora_Pugacheva__DVD9\VIDEO_TS\VTS_01_3.VOB
Формат : MPEG-PS
Размер файла : 1000 Мбайт
Продолжительность : 25 м.
Режим общего битрейта : Переменный
Общий поток : 5487 Кбит/сек
Видео
Идентификатор : 224 (0xE0)
Формат : MPEG Video
Версия формата : Version 2
Профиль формата : Main@Main
Параметр BVOP формата : Да
Параметр матрицы формата : Выборочная
Параметр GOP формата : M=3, N=15
Продолжительность : 25 м.
Вид битрейта : Переменный
Битрейт : 5000 Кбит/сек
Ширина : 720 пикселей
Высота : 576 пикселей
Соотношение сторон : 4:3
Частота кадров : 25,000 кадров/сек
Стандарт вещания : PAL
Цветовое пространство : YUV
Субдискретизация насыщенности : 4:2:0
Битовая глубина : 8 бит
Тип развёртки : Чересстрочная
Порядок развёртки : Верхнее поле первое
Метод сжатия : С потерями
Бит/(Пиксели*Кадры) : 0.482
Размер потока : 910 Мбайт (91%)
Аудио
Идентификатор : 189 (0xBD)-128 (0x80)
Формат : AC-3
Формат/Информация : Audio Coding 3
Расширение режима : CM (complete main)
Параметр Endianness формата : Big
Режим смешивания : DVD-Video
Продолжительность : 25 м.
Вид битрейта : Постоянный
Битрейт : 384 Кбит/сек
Каналы : 6 каналов
Расположение каналов : Front: L C R, Side: L R, LFE
Частота : 48,0 КГц
Битовая глубина : 16 бит
Метод сжатия : С потерями
Задержка видео : -320 мс.
Размер потока : 70,0 Мбайт (7%)
Меню

Дополнительно

Бонусы: нет

Скриншоты меню

Скриншоты:
Встреча на Эльбе-Год выпуска: 1949
Производство: СССР
Жанр: военный
Продолжительность: 01:12:50
Режиссер: Григорий Александров
Сценарий: Лев Шейнин, Петр Тур, Леонид Тур
Оператор: Эдуард Тиссэ
Композитор : Дмитрий Шостакович
Художник: Алексей Уткин
Монтаж: Ева Ладыженская
В ролях: Владлен Давыдов (комендант Кузьмин), Константин Нассонов (член Военного совета Маслов), Борис Андреев (сержант Егоркин), Михаил Названов (майор Джеймс Хилл), Любовь Орлова (журналистка Джанет Шервуд), Иван Любезнов (сержант Гарри Перебейнога), Владимир Владиславский (генерал Макдермот), Фаина Раневская (миссис Макдермот)

Описание: Советские и американские войска встречаются на берегах Эльбы в последние дни Великой отечественной войны. Советское командование пытается наладить мирную жизнь в разоренной Германии. Американцы же с помощью бывшего нациста пытаются получить секретные военные разработки…

Зрители: СССР 24.2 млн
Премьера (мир): 16 марта 1949, ...
Релиз на DVD: 7 декабря 2006, «Союз-Видео»-Небесный тихоход-Год выпуска: 1945
Производство: СССР
Жанр: комедия, военный
Продолжительность: 01:38:27
Режиссер: Семен Тимошенко
Сценарий: Семен Тимошенко
Оператор: Александр Сигаев
Композитор : Василий Соловьев-Седой
Художник: Исаак Махлис, Павел Вейсбрем
Монтаж: Н. Разумова
В ролях: Николай Крючков (майор Булочкин), Василий Меркурьев (ст. лейтенант Туча), Василий Нещипленко (капитан Кайсаров), Алла Парфаньяк (корреспондент Валя), Людмила Глазова (ст. лейтенант Кутузова), Тамара Алешина (ст. лейтенант Светлова), Яков Гудкин (в титрах не указан), Фаина Раневская (в титрах не указана)

Описание: Три друга, летчики-офицеры, поклялись не любить до конца войны. Однако военная служба познакомила их с летчицами женской эскадрильи. И друзья один за другим начали сдавать свои позиции.После тяжелого ранения летчик Булочкин вынужден летать не на скоростном истребителе, а на «тихоходе» У-2. Привыкший к опасностям Булочкин с трудом привыкает к спокойной жизни в эскадрилье, где большинство летчиков — девушки. Но вскоре становится ясно, что на войне важны и «тихоходы».

Зрители: СССР 21 млн
Премьера (мир): 1 апреля 1946, ...
Релиз на DVD: 21 апреля 2005, «Союз-Видео», ...
Релиз на Blu-Ray: 4 мая 2011, «Парадиз Медиа»-"Фильм историко-культурного поискового центра "Обелиск"-Описание: "Фильм историко-культурного поискового центра "Обелиск"". (Абсолютно тот же, что на диске из второй части цикла)
Небольшой документальный фильм о не захороненных солдатах Второй Мировой Войны и деятельности историко-культурного поискового центра "Обелиск". Достаточно посмотреть на скрины, чтобы понять о чём именно фильм.
Продолжительность: 00:16:56
Качество: DVD9
Формат: DVD Video
Видео: PAL 4:3 (720x576) VBR
Аудио: Russian (Dolby AC3, 2 ch)
Субтитры: нет

DVDInfo

Title: Elements
Size: 7.57 Gb ( 7 933 068 KBytes ) - DVD-9
Enabled regions: 1, 2, 3, 4, 5, 6, 7, 8
VTS_01 :
Play Length: 01:12:50+01:38:27+00:16:56+00:00:09
Video: PAL 4:3 (704x576) VBR
Audio:
Russian (Dolby AC3, 2 ch)

MediaInfo

Общее
Полное имя : F:\DVD\ZA_RODINU_3rd_Boxed_Set\ZA_RODINU_3rd_Boxed_Set__Vstrecha_Na_Elbe__Nebesny_Tihohod__DVD9\VIDEO_TS\VTS_01_2.VOB
Формат : MPEG-PS
Размер файла : 1000 Мбайт
Продолжительность : 24 м.
Режим общего битрейта : Переменный
Общий поток : 5733 Кбит/сек
Видео
Идентификатор : 224 (0xE0)
Формат : MPEG Video
Версия формата : Version 2
Профиль формата : Main@Main
Параметр BVOP формата : Да
Параметр матрицы формата : По умолчанию
Параметр GOP формата : M=3, N=13
Продолжительность : 24 м.
Вид битрейта : Переменный
Битрейт : 5171 Кбит/сек
Максимальный битрейт : 8000 Кбит/сек
Ширина : 720 пикселей
Высота : 576 пикселей
Соотношение сторон : 4:3
Частота кадров : 25,000 кадров/сек
Стандарт вещания : PAL
Цветовое пространство : YUV
Субдискретизация насыщенности : 4:2:0
Битовая глубина : 8 бит
Тип развёртки : Чересстрочная
Порядок развёртки : Верхнее поле первое
Метод сжатия : С потерями
Бит/(Пиксели*Кадры) : 0.499
Размер потока : 902 Мбайт (90%)
Основные цвета : BT.601 PAL
Характеристики трансфера : BT.470 System B, BT.470 System G
Коэффициенты матрицы : BT.601
Аудио
Идентификатор : 189 (0xBD)-128 (0x80)
Формат : AC-3
Формат/Информация : Audio Coding 3
Расширение режима : CM (complete main)
Параметр Endianness формата : Big
Режим смешивания : DVD-Video
Продолжительность : 24 м.
Вид битрейта : Постоянный
Битрейт : 448 Кбит/сек
Каналы : 2 канала
Расположение каналов : Front: L R
Частота : 48,0 КГц
Битовая глубина : 16 бит
Метод сжатия : С потерями
Задержка видео : -232 мс.
Размер потока : 78,1 Мбайт (8%)
Меню

Дополнительно

Бонусы: нет

Скриншоты меню

Скриншоты:


Мемуары ветеранов: память солдатская - диск 1- Год выпуска: 2006
Жанр: Документальный
Продолжительность: 04:45:00
Описание: Этот телевизионный документальный проект, посвящённый участникам Великой Отечественной Войны, также представляет собой уникальный видео архив воспоминаний участников и свидетелей Великой Отечественной Войны - генералов, простых солдат, работников тыла. В каждой серии ветераны ВОВ вспоминают свою жизнь до войны и во время войны. Все сложности, радости и будни военного времени в рассказах участников событий. Война в воспоминании оставшихся в живых ветеранов. Это наша история, наша память и наша слава. [Извините, аннотацию писал какой-то потс неграмотный, но фильм познавательный - прим. релизера]
Качество: DVD9
Формат: DVD Video
Видео: PAL 4:3 (720x576) CBR
Аудио: Russian (Dolby AC3, 2 ch)
Субтитры: нет

DVDInfo

Title: Elements
Size: 7.52 Gb ( 7 881 788 KBytes ) - DVD-9
Enabled regions: 1, 2, 3, 4, 5, 6, 7, 8
VTS_01 :
Play Length: 00:28:39+00:28:49+00:28:50+00:28:54+00:28:28+00:27:24+00:28:48+00:28:36+00:28:24+00:28:27
Video: PAL 4:3 (704x576) CBR
Audio:
English (Dolby AC3, 2 ch)
VTS_02 :
Play Length: 00:00:09
Video: PAL 4:3 (704x576) VBR

MediaInfo

Общее
Полное имя : F:\DVD\ZA_RODINU_3rd_Boxed_Set\ZA_RODINU_3rd_Boxed_Set__Memuary_Veteranov_Pamyat`_Soldatskaya_Disk1_DVD9\VIDEO_TS\VTS_01_3.VOB
Формат : MPEG-PS
Размер файла : 1000 Мбайт
Продолжительность : 8 м. 14 с.
Режим общего битрейта : Переменный
Общий поток : 17,0 Мбит/сек
Видео
Идентификатор : 224 (0xE0)
Формат : MPEG Video
Версия формата : Version 2
Профиль формата : Main@Main
Параметр BVOP формата : Да
Параметр матрицы формата : Выборочная
Параметр GOP формата : M=3, N=15
Продолжительность : 8 м. 14 с.
Вид битрейта : Переменный
Битрейт : 16,4 Мбит/сек
Максимальный битрейт : 6000 Кбит/сек
Ширина : 352 пикселя
Высота : 576 пикселей
Соотношение сторон : 4:3
Частота кадров : 25,000 кадров/сек
Стандарт вещания : PAL
Цветовое пространство : YUV
Субдискретизация насыщенности : 4:2:0
Битовая глубина : 8 бит
Тип развёртки : Чересстрочная
Порядок развёртки : Верхнее поле первое
Метод сжатия : С потерями
Бит/(Пиксели*Кадры) : 3.241
Размер потока : 969 Мбайт (97%)
Аудио
Идентификатор : 189 (0xBD)-128 (0x80)
Формат : AC-3
Формат/Информация : Audio Coding 3
Расширение режима : CM (complete main)
Параметр Endianness формата : Big
Режим смешивания : DVD-Video
Продолжительность : 8 м. 14 с.
Вид битрейта : Постоянный
Битрейт : 192 Кбит/сек
Каналы : 2 канала
Расположение каналов : Front: L R
Частота : 48,0 КГц
Битовая глубина : 16 бит
Метод сжатия : С потерями
Задержка видео : -224 мс.
Размер потока : 11,3 Мбайт (1%)
Меню

Дополнительно

Бонусы: нет

Скриншоты меню

Скриншоты:

Описание для портала

Описание: Война всегда начинается внезапно. В 1941 году началась самая страшная - Великая Отечественная. День победы СССР над фашистской Германией в Великую Отечественную Войну был и остаётся одним из самых почитаемых праздников в нашей стране.
В серию сборников "За Родину" вошли фильмы наиболее полно передающие атмосферу того героического времени. Это и самые последние современные художественные фильмы о войне, документальная хроника военных лет и фильмы военного времени, ставшие классикой. Эти сборники будут интересны и молодому поколению и, безусловно, станут прекрасным подарком нашим любимым родителям.
Жанр: драма, военный
Продолжительность: ~ 4 x 01:33:22
Скриншоты:

Время раздачи: 24/7, до 10 скачавших

[Цитировать]



Показать сообщения:    

Текущее время: 09-Дек 20:27

Часовой пояс: UTC + 3


Вы не можете начинать темы
Вы не можете отвечать на сообщения
Вы не можете редактировать свои сообщения
Вы не можете удалять свои сообщения
Вы не можете голосовать в опросах
Вы не можете прикреплять файлы к сообщениям
Вы не можете скачивать файлы

!ВНИМАНИЕ!
Сайт не предоставляет электронные версии произведений, а занимается лишь коллекционированием и каталогизацией ссылок, присылаемых и публикуемых на форуме нашими читателями. Если вы являетесь правообладателем какого-либо представленного материала и не желаете, чтобы ссылка на него находилась в нашем каталоге, свяжитесь с нами, и мы незамедлительно удалим ее. Файлы для обмена на трекере предоставлены пользователями сайта, и администрация не несет ответственности за их содержание. Просьба не заливать файлы, защищенные авторскими правами, а также файлы нелегального содержания!