[ Сегодня идет свободное скачивание без начисления Download ]


Статистика раздачи
Скачал: [ 1 ]
 
   
 
Top  
 
 
-Неуязвимый / Unbreakable (2000) HDRip- Год выпуска: 2000
Производство: США / Barry Mendel Productions, Blinding Edge Pictures
Жанр: Драма, Триллер-Описание фильма:
В 3:15 пополудни происходит страшная железнодорожная катастрофа. Из 132 пассажиров в живых остается только один. Дэйвид Данн не просто уцелел посреди мгновенного ада из железа и огня — он не получил ни одной царапины. И лишь один человек на земле знает причину этого чуда — Элайджа Прайс по прозвищу «Мистер Стекло», чьи кости могут сломаться даже от незначительного внешнего усилия…
Режиссер: М. Найт Шьямалан
Продюсер: Бэрри Мендел, Сэм Мерсер, М. Найт Шьямалан
Актеры: Брюс Уиллис, Сэмюэл Л. Джексон, Робин Райт, Спенсер Трит Кларк, Чарлэйн Вудард, Имонн Уолкер, Лесли Стефансон, Джонни Хирам Джеймисон, Мишелия Кэрролл, Бостин Кристофер-Перевод: Одноголосый закадровый, авторский
Автор перевода: А.Ю.Гаврилов
Язык субтитров: отсутствуют-
Дата мировой премьеры: 14 ноября 2000
Дата российской премьеры: 6 декабря 2000, «Каскад»
Дата выхода DVD релиза: 10 августа 2010, «Уолт Дисней Компани СНГ»
Дата выхода Blu-Ray релиза: 20 апреля 2010, «Уолт Дисней Компани СНГ»-Продолжительность: 01:46:39
Качество видео: HDRip
Видео: MPEG4, XviD, 688x288 (2.35:1), 23.976 fps, 978 Kbps (0.206 bit/pixel)
Аудио: MP3, 48.0 KHz, 2 ch, 128 Kbps, CBR

MediaInfo:

Формат : AVI
Формат/Информация : Audio Video Interleave
Размер файла : 851 Мбайт
Продолжительность : 1 ч. 46 м.
Общий поток : 1115 Кбит/сек
Программа кодирования : VirtualDubMod 1.5.10.3 | www.virtualdub-fr.org || (build 2550/release)
Библиотека кодирования : VirtualDubMod build 2550/release
Видео
Идентификатор : 0
Формат : MPEG-4 Visual
Профиль формата : Advanced Simple@L5
Параметр BVOP формата : 1
Параметр QPel формата : Нет
Параметр GMC формата : Без точки перехода
Параметр матрицы формата : Default (MPEG)
Идентификатор кодека : XVID
Идентификатор кодека/Подсказка : XviD
Продолжительность : 1 ч. 46 м.
Битрейт : 978 Кбит/сек
Ширина : 688 пикселей
Высота : 288 пикселей
Соотношение сторон : 2,40:1
Частота кадров : 23,976 кадра/сек
Цветовое пространство : YUV
Субдискретизация насыщенности : 4:2:0
Битовая глубина : 8 бит
Тип развёртки : Прогрессивная
Метод сжатия : С потерями
Бит/(Пиксели*Кадры) : 0.206
Размер потока : 746 Мбайт (88%)
Библиотека кодирования : XviD 64
Аудио
Идентификатор : 1
Формат : MPEG Audio
Версия формата : Version 1
Профиль формата : Layer 3
Идентификатор кодека : 55
Идентификатор кодека/Подсказка : MP3
Продолжительность : 1 ч. 46 м.
Вид битрейта : Постоянный
Битрейт : 128 Кбит/сек
Каналы : 2 канала
Частота : 48,0 КГц
Метод сжатия : С потерями
Размер потока : 97,6 Мбайт (11%)
Выравнивание : Соединение по промежуткам
Продолжительность промежутка : 42 мс. (1,00 видеокадр)
Время предзагрузки промежутка : 504 мс.
Библиотека кодирования : L3.99r
Настройки программы : -m s -V 4 -q 2 -lowpass 17 -b 128
Скриншоты:
-Время раздачи: с 10:00 до 18:30 (до 3-х скачавших)

[Цитировать]



Показать сообщения:    

Текущее время: 23-Фев 01:02

Часовой пояс: UTC + 3


Вы не можете начинать темы
Вы не можете отвечать на сообщения
Вы не можете редактировать свои сообщения
Вы не можете удалять свои сообщения
Вы не можете голосовать в опросах
Вы не можете прикреплять файлы к сообщениям
Вы не можете скачивать файлы

!ВНИМАНИЕ!
Сайт не предоставляет электронные версии произведений, а занимается лишь коллекционированием и каталогизацией ссылок, присылаемых и публикуемых на форуме нашими читателями. Если вы являетесь правообладателем какого-либо представленного материала и не желаете, чтобы ссылка на него находилась в нашем каталоге, свяжитесь с нами, и мы незамедлительно удалим ее. Файлы для обмена на трекере предоставлены пользователями сайта, и администрация не несет ответственности за их содержание. Просьба не заливать файлы, защищенные авторскими правами, а также файлы нелегального содержания!