[ Сегодня идет свободное скачивание без начисления Download ]


Статистика раздачи
Нет
 
   
 
Top  
 
 
-Время ведьм / Season of the Witch (2010) BDRip [H.264]
« Не все души можно спасти »
- Год выпуска: 2010
Производство: США | Relativity Media, Atlas Entertainment
Жанр: Фэнтези, Боевик, Приключения
Режиссер: Доминик Сена
Продюсер: Алекс Гартнер, Чарльз Ровен, Стив Александр
Актеры: Николас Кейдж, Рон Перлман, Стивен Кэмпбелл Мур, Стивен Грэм, Ульрих Томсен, Клер Фой, Роберт Шиэн, Кристофер Ли, Ребека Кеннеди, Эндрю Хефлер, Фернанда Дороги, Кевин Риис, Мэтт Девере, Роберт Банлаки, Барна Илльеш, Симона Кирби
Описание фильма: XIV столетие. В Европе свирепствует чума. Виновницей смертоносной беды признают беззащитную девушку, подозревая ее в колдовстве. Умирающий кардинал просит рыцаря Бэймена доставить ведьму в далекое аббатство, где ее чары должны быть разрушены. Шестеро верховых и повозка с железной клеткой, в которой заточена обвиняемая, отправляются в опасное путешествие. Скоро рыцари осознают, их миловидная спутница действительно не человек, а исчадие ада.
Перевод: Профессиональный дублированный, авторский
Вид субтитров: Вшитые отключаемые
Язык субтитров: Русский, английский- -Дата мировой премьеры: 4 января 2011
Дата российской премьеры: 6 января 2011, «Парадиз»
Дата выхода DVD релиза: 17 марта 2011, «CP-Digital»
Дата выхода Blu-ray релиза: 17 марта 2011, «CP-Digital»
Продолжительность: 01:34:55
Возраст 16+: Зрителям, достигшим 16 лет
Рейтинг MPAA PG-13: Детям до 13 лет просмотр не желателен
Качество видео: BDRip [H.264]
Видео: MPEG-4 AVC/H.264, 3500 Kbps, 1024 x 576
Аудио 1: Русский AC3 5.1, 384 Kbps, 48.0 KHz (Полное дублирование) Blu-ray CEE
Аудио 2: Русский AC3 5.1, 384 Kbps, 48.0 KHz (Одноголосый закадровый) Ю. Живов
Аудио 3: Русский AC3 5.1, 384 Kbps, 48.0 KHz (Одноголосый закадровый) Ю. Немахов
Аудио 4: Русский AC3 5.1, 384 Kbps, 48.0 KHz (Одноголосый закадровый) А. Дасевич
Аудио 5: Русский AC3 5.1, 384 Kbps, 48.0 KHz (Одноголосый закадровый) А. Киреев
Аудио 6: Английский AC3 5.1, 640 Kbps, 48.0 KHz (Оригинал)-

Blu-ray

MediaInfo

Общее
Полное имя : Время ведьм.mkv
Формат : Matroska
Версия формата : Version 1
Размер файла : 4,02 Гбайт
Продолжительность : 1 ч. 34 м.
Общий поток : 6057 Кбит/сек
Дата кодирования : UTC 2014-10-20 15:49:33
Программа кодирования : mkvmerge v2.4.1 ('Use Me') built on Dec 5 2008 18:30:05
Библиотека кодирования : libebml v0.7.7 + libmatroska v0.8.1
Видео
Идентификатор : 1
Формат : AVC
Формат/Информация : Advanced Video Codec
Профиль формата : High@L4.1
Параметр CABAC формата : Да
Параметр ReFrames формата : 10 кадров
Идентификатор кодека : V_MPEG4/ISO/AVC
Продолжительность : 1 ч. 34 м.
Битрейт : 3500 Кбит/сек
Ширина : 1024 пикселя
Высота : 576 пикселей
Соотношение сторон : 16:9
Режим частоты кадров : Постоянный
Частота кадров : 23,976 кадра/сек
Цветовое пространство : YUV
Субдискретизация насыщенности : 4:2:0
Битовая глубина : 8 бит
Тип развёртки : Прогрессивная
Бит/(Пиксели*Кадры) : 0.247
Размер потока : 2,24 Гбайт (56%)
Заголовок : Время ведьм (2010)
Библиотека кодирования : x264 core 129 r2245 bc13772
Настройки программы : cabac=1 / ref=10 / deblock=1:-3:-3 / analyse=0x3:0x133 / me=umh / subme=10 / psy=1 / psy_rd=1.00:0.10 / mixed_ref=1 / me_range=48 / chroma_me=1 / trellis=2 / 8x8dct=1 / cqm=0 / deadzone=21,11 / fast_pskip=0 / chroma_qp_offset=-3 / threads=6 / lookahead_threads=1 / sliced_threads=0 / nr=0 / decimate=1 / interlaced=0 / bluray_compat=0 / constrained_intra=0 / bframes=5 / b_pyramid=2 / b_adapt=2 / b_bias=0 / direct=3 / weightb=1 / open_gop=0 / weightp=2 / keyint=240 / keyint_min=22 / scenecut=40 / intra_refresh=0 / rc_lookahead=40 / rc=2pass / mbtree=1 / bitrate=3500 / ratetol=1.0 / qcomp=0.60 / qpmin=10 / qpmax=51 / qpstep=4 / cplxblur=20.0 / qblur=0.5 / ip_ratio=1.40 / aq=1:1.00
Язык : English
Аудио #1
Идентификатор : 2
Формат : AC-3
Формат/Информация : Audio Coding 3
Расширение режима : CM (complete main)
Параметр Endianness формата : Big
Идентификатор кодека : A_AC3
Продолжительность : 1 ч. 34 м.
Вид битрейта : Постоянный
Битрейт : 384 Кбит/сек
Каналы : 6 каналов
Расположение каналов : Front: L C R, Side: L R, LFE
Частота : 48,0 КГц
Битовая глубина : 16 бит
Метод сжатия : С потерями
Размер потока : 261 Мбайт (6%)
Заголовок : AC3 (Дублированный) Blu-ray CEE
Язык : Russian
Аудио #2
Идентификатор : 3
Формат : AC-3
Формат/Информация : Audio Coding 3
Расширение режима : CM (complete main)
Параметр Endianness формата : Big
Идентификатор кодека : A_AC3
Продолжительность : 1 ч. 34 м.
Вид битрейта : Постоянный
Битрейт : 384 Кбит/сек
Каналы : 6 каналов
Расположение каналов : Front: L C R, Side: L R, LFE
Частота : 48,0 КГц
Битовая глубина : 16 бит
Метод сжатия : С потерями
Задержка видео : 16 мс.
Размер потока : 261 Мбайт (6%)
Заголовок : AC3 (Одноголосый) Ю. Живов
Язык : Russian
Аудио #3
Идентификатор : 4
Формат : AC-3
Формат/Информация : Audio Coding 3
Расширение режима : CM (complete main)
Параметр Endianness формата : Big
Идентификатор кодека : A_AC3
Продолжительность : 1 ч. 34 м.
Вид битрейта : Постоянный
Битрейт : 384 Кбит/сек
Каналы : 6 каналов
Расположение каналов : Front: L C R, Side: L R, LFE
Частота : 48,0 КГц
Битовая глубина : 16 бит
Метод сжатия : С потерями
Задержка видео : 16 мс.
Размер потока : 261 Мбайт (6%)
Заголовок : AC3 (Одноголосый) Ю. Немахов
Язык : Russian
Аудио #4
Идентификатор : 5
Формат : AC-3
Формат/Информация : Audio Coding 3
Расширение режима : CM (complete main)
Параметр Endianness формата : Big
Идентификатор кодека : A_AC3
Продолжительность : 1 ч. 34 м.
Вид битрейта : Постоянный
Битрейт : 384 Кбит/сек
Каналы : 6 каналов
Расположение каналов : Front: L C R, Side: L R, LFE
Частота : 48,0 КГц
Битовая глубина : 16 бит
Метод сжатия : С потерями
Задержка видео : 16 мс.
Размер потока : 261 Мбайт (6%)
Заголовок : AC3 (Одноголосый) А. Дасевич
Язык : Russian
Аудио #5
Идентификатор : 6
Формат : AC-3
Формат/Информация : Audio Coding 3
Расширение режима : CM (complete main)
Параметр Endianness формата : Big
Идентификатор кодека : A_AC3
Продолжительность : 1 ч. 34 м.
Вид битрейта : Постоянный
Битрейт : 384 Кбит/сек
Каналы : 6 каналов
Расположение каналов : Front: L C R, Side: L R, LFE
Частота : 48,0 КГц
Битовая глубина : 16 бит
Метод сжатия : С потерями
Задержка видео : 16 мс.
Размер потока : 261 Мбайт (6%)
Заголовок : AC3 (Одноголосый) А. Киреев
Язык : Russian
Аудио #6
Идентификатор : 7
Формат : AC-3
Формат/Информация : Audio Coding 3
Расширение режима : CM (complete main)
Параметр Endianness формата : Big
Идентификатор кодека : A_AC3
Продолжительность : 1 ч. 34 м.
Вид битрейта : Постоянный
Битрейт : 640 Кбит/сек
Каналы : 6 каналов
Расположение каналов : Front: L C R, Side: L R, LFE
Частота : 48,0 КГц
Битовая глубина : 16 бит
Метод сжатия : С потерями
Размер потока : 435 Мбайт (11%)
Заголовок : AC3 (Оригинал)
Язык : English
Текст #1
Идентификатор : 8
Формат : UTF-8
Идентификатор кодека : S_TEXT/UTF8
Идентификатор кодека/Информация : UTF-8 Plain Text
Заголовок : Русские
Язык : Russian
Текст #2
Идентификатор : 9
Формат : UTF-8
Идентификатор кодека : S_TEXT/UTF8
Идентификатор кодека/Информация : UTF-8 Plain Text
Заголовок : Английские
Язык : English

Дополнительно

? Для съемок сцены погони волков за главными героями создатели фильма обратились к известному дрессировщику Золтану Хоркаи. В съемках принимали участие семь волков, причем каждый должен был выполнять определенные действия на экране.
-Скриншоты:

[Цитировать]



Показать сообщения:    

Текущее время: 11-Дек 03:22

Часовой пояс: UTC + 3


Вы не можете начинать темы
Вы не можете отвечать на сообщения
Вы не можете редактировать свои сообщения
Вы не можете удалять свои сообщения
Вы не можете голосовать в опросах
Вы не можете прикреплять файлы к сообщениям
Вы не можете скачивать файлы

!ВНИМАНИЕ!
Сайт не предоставляет электронные версии произведений, а занимается лишь коллекционированием и каталогизацией ссылок, присылаемых и публикуемых на форуме нашими читателями. Если вы являетесь правообладателем какого-либо представленного материала и не желаете, чтобы ссылка на него находилась в нашем каталоге, свяжитесь с нами, и мы незамедлительно удалим ее. Файлы для обмена на трекере предоставлены пользователями сайта, и администрация не несет ответственности за их содержание. Просьба не заливать файлы, защищенные авторскими правами, а также файлы нелегального содержания!