[ Сегодня идет свободное скачивание без начисления Download ]


Статистика раздачи
Нет
 
   
 
Top  
 
 
-Трансформеры: Эпоха истребления / Transformers: Age of Extinction (2014) BDRemux [1080p]- Год выпуска: 2014
Производство: США, Китай / Paramount Pictures, Hasbro, Di Bonaventura Pictures
Жанр: Фантастика, Боевик, Приключения
Режиссер: Майкл Бэй
Продюсер: Йен Брайс, Том ДеСанто, Лоренцо Ди Бонавентура
Актеры: Марк Уолберг, Никола Пельтц, Джек Рейнор, Стэнли Туччи, Келси Грэммер, Титус Уэлливер, ТиДжей Миллер, Ли Бинбин, София Майлс, Питер Каллен
Описание фильма:
Автоботы и десептиконы покинули планету, оставив человечество собирать ее по кусочкам. Между тем группа могущественных бизнесменов и гениальных ученых пытается извлечь уроки из ошибок прошлого и улучшить технологии до такой степени, чтобы выйти за пределы контролируемого ранее. В это время другая группа — древних мощных трансформеров — берет Землю под прицел.
Перевод: Дублированный (iTunes Russia)
Субтитры: Вшитые отключаемые
Язык субтитров: Английский

Дата мировой премьеры: 25 июня 2014
Дата российской премьеры: 26 июня 2014, «Централ Партнершип» 3D
Дата украинской премьеры: 26 июня 2014, «B&H Film Distribution Company»
Дата выхода DVD/Blu-Ray релиза: 3 ноября 2014, «Новый Диск»
Продолжительность: 02:45:07
Качество видео: BDRemux [1080p]
Видеокодек: MPEG-4/H.264
Битрейт видео: ~24262 Kbps
Размер кадра: 1920x1080
Аудио #1: Русский: AC3, 48.0 KHz, 2 ch, 384 Kbps, CBR - (iTunes Russia)
Аудио #2: Английский: AC3, 48.0 KHz, 6 ch, 640 Kbps, CBR - (Оригинал)
Аудио #3: Английский: AC3, 48.0 KHz, 6 ch, 640 Kbps, CBR - (Descriptive)
Сэмпл: Скачать

MediaInfo:

Общее
Уникальный идентификатор : 210071865342660759681933497416446333993 (0x9E0A5E9DB0DB45AB8520F1ECEB6B5429)
Полное имя : D:\Фильмы\Transformery.Epoha.istrebleniya.2014.BDRemux.1080p.mkv
Формат : Matroska
Версия формата : Version 4 / Version 2
Размер файла : 29,7 Гбайт
Продолжительность : 2 ч. 45 м.
Режим общего битрейта : Переменный
Общий поток : 25,7 Мбит/сек
Дата кодирования : UTC 2014-10-20 21:02:25
Программа кодирования : mkvmerge v7.2.0 ('On Every Street') 64bit built on Sep 13 2014 15:52:10
Библиотека кодирования : libebml v1.3.0 + libmatroska v1.4.1
DURATION : 02:45:06.368000000
NUMBER_OF_FRAMES : 309574
NUMBER_OF_BYTES : 475505664
_STATISTICS_WRITING_APP : mkvmerge v7.2.0 ('On Every Street') 64bit built on Sep 13 2014 15:52:10
_STATISTICS_WRITING_DATE_UTC : 2014-10-20 21:02:25
_STATISTICS_TAGS : BPS DURATION NUMBER_OF_FRAMES NUMBER_OF_BYTES
Attachment : Yes
Видео
Идентификатор : 1
Формат : AVC
Формат/Информация : Advanced Video Codec
Профиль формата : High@L4.1
Параметр CABAC формата : Да
Параметр ReFrames формата : 4 кадра
Идентификатор кодека : V_MPEG4/ISO/AVC
Продолжительность : 2 ч. 45 м.
Вид битрейта : Переменный
Битрейт : 23,6 Мбит/сек
Максимальный битрейт : 33,0 Мбит/сек
Ширина : 1920 пикселей
Высота : 1080 пикселей
Соотношение сторон : 16:9
Режим частоты кадров : Постоянный
Частота кадров : 23,976 кадра/сек
Цветовое пространство : YUV
Субдискретизация насыщенности : 4:2:0
Битовая глубина : 8 бит
Тип развёртки : Прогрессивная
Бит/(Пиксели*Кадры) : 0.474
Размер потока : 27,2 Гбайт (92%)
Язык : English
Default : Да
Forced : Нет
Аудио #1
Идентификатор : 2
Формат : AC-3
Формат/Информация : Audio Coding 3
Расширение режима : CM (complete main)
Параметр Endianness формата : Big
Идентификатор кодека : A_AC3
Продолжительность : 2 ч. 45 м.
Вид битрейта : Постоянный
Битрейт : 384 Кбит/сек
Каналы : 6 каналов
Расположение каналов : Front: L C R, Side: L R, LFE
Частота : 48,0 КГц
Битовая глубина : 16 бит
Метод сжатия : С потерями
Размер потока : 454 Мбайт (1%)
Заголовок : AC3 / 5.1 / 384 Kbps / iTunes Russia
Язык : Russian
Default : Да
Forced : Нет
Аудио #2
Идентификатор : 3
Формат : AC-3
Формат/Информация : Audio Coding 3
Расширение режима : CM (complete main)
Параметр Endianness формата : Big
Идентификатор кодека : A_AC3
Продолжительность : 2 ч. 45 м.
Вид битрейта : Постоянный
Битрейт : 640 Кбит/сек
Каналы : 6 каналов
Расположение каналов : Front: L C R, Side: L R, LFE
Частота : 48,0 КГц
Битовая глубина : 16 бит
Метод сжатия : С потерями
Размер потока : 756 Мбайт (2%)
Заголовок : AC3 / 5.1 / 640 Kbps / Original
Язык : English
Default : Нет
Forced : Нет
Аудио #3
Идентификатор : 4
Формат : AC-3
Формат/Информация : Audio Coding 3
Расширение режима : CM (complete main)
Параметр Endianness формата : Big
Идентификатор кодека : A_AC3
Продолжительность : 2 ч. 45 м.
Вид битрейта : Постоянный
Битрейт : 640 Кбит/сек
Каналы : 6 каналов
Расположение каналов : Front: L C R, Side: L R, LFE
Частота : 48,0 КГц
Битовая глубина : 16 бит
Метод сжатия : С потерями
Размер потока : 756 Мбайт (2%)
Заголовок : AC3 / 5.1 / 640 Kbps / Descriptive
Язык : English
Default : Нет
Forced : Нет
Текст
Идентификатор : 5
Формат : UTF-8
Идентификатор кодека : S_TEXT/UTF8
Идентификатор кодека/Информация : UTF-8 Plain Text
Заголовок : Full
Язык : English
Default : Нет
Forced : Нет
Меню
00:00:00.000 : en:Chapter 01
00:06:51.577 : en:Chapter 02
00:14:33.580 : en:Chapter 03
00:21:37.462 : en:Chapter 04
00:30:13.393 : en:Chapter 05
00:38:45.989 : en:Chapter 06
00:46:08.056 : en:Chapter 07
00:51:39.513 : en:Chapter 08
00:59:09.337 : en:Chapter 09
01:07:48.647 : en:Chapter 10
01:15:14.551 : en:Chapter 11
01:23:25.291 : en:Chapter 12
01:29:14.724 : en:Chapter 13
01:37:16.956 : en:Chapter 14
01:44:35.435 : en:Chapter 15
01:51:25.053 : en:Chapter 16
01:57:47.935 : en:Chapter 17
02:04:48.480 : en:Chapter 18
02:12:35.864 : en:Chapter 19
02:21:04.205 : en:Chapter 20
02:28:48.669 : en:Chapter 21
02:37:09.628 : en:Chapter 22
02:45:07.063 : en:Chapter 23

Avdump:

File: D:\Фильмы\Transformery.Epoha.istrebleniya.2014.BDRemux.1080p.mkv
Duration: 02:45:07 (9907.33)
Track #1: video
lang: Unknown (1)
codc: V_MPEG4/ISO/AVC -> H264/AVC (22)
reso: 1920x1080 -> 16:9
fram: 23.976 fps
rate: 24078 kbps (24078.2)
dura: 02:45:07 (9907.27)
size: 27.77 GB (29818672637)
Track #2: audio (AC3 / 5.1 / 384 Kbps / iTunes Russia)
lang: rus -> Russian (15)
codc: A_AC3 -> AC3 (2)
chan: 6 -> 5.1 Surround
samp: 48000 Hz
rate: 384 kbps (384.05)
dura: 02:45:06 (9906.18)
size: 453.52 MB (475553065)
Track #3: audio (AC3 / 5.1 / 640 Kbps / Original)
lang: Unknown (1)
codc: A_AC3 -> AC3 (2)
chan: 6 -> 5.1 Surround
samp: 48000 Hz
rate: 640 kbps (640.05)
dura: 02:45:07 (9907.17)
size: 755.91 MB (792633658)
Track #4: audio (AC3 / 5.1 / 640 Kbps / Descriptive)
lang: Unknown (1)
codc: A_AC3 -> AC3 (2)
chan: 6 -> 5.1 Surround
samp: 48000 Hz
rate: 640 kbps (640.05)
dura: 02:45:07 (9907.17)
size: 755.91 MB (792633657)
Track #5: subtitles (Full)
lang: Unknown (1)
type: S_TEXT/UTF8 -> SRT (3)
size: 70.51 KB (72200)
Sizes: (check sanity)
disk: 29.69 GB (31884555256)
atts: 1.27 MB (1326682)
trac: 5.69 GB (6109761441) [based on track size]
bitr: 29.69 GB (31879561339) [based on bitrate]
tdif: 24.00 GB (25773467133) 80.83%
bdif: 3.50 MB (3667234) 0.01%
Скриншоты:
Время раздачи: 24/7
(до 5 скачавших)

[Цитировать]



Показать сообщения:    

Текущее время: 07-Дек 15:35

Часовой пояс: UTC + 3


Вы не можете начинать темы
Вы не можете отвечать на сообщения
Вы не можете редактировать свои сообщения
Вы не можете удалять свои сообщения
Вы не можете голосовать в опросах
Вы не можете прикреплять файлы к сообщениям
Вы не можете скачивать файлы

!ВНИМАНИЕ!
Сайт не предоставляет электронные версии произведений, а занимается лишь коллекционированием и каталогизацией ссылок, присылаемых и публикуемых на форуме нашими читателями. Если вы являетесь правообладателем какого-либо представленного материала и не желаете, чтобы ссылка на него находилась в нашем каталоге, свяжитесь с нами, и мы незамедлительно удалим ее. Файлы для обмена на трекере предоставлены пользователями сайта, и администрация не несет ответственности за их содержание. Просьба не заливать файлы, защищенные авторскими правами, а также файлы нелегального содержания!