[ Сегодня идет свободное скачивание без начисления Download ]


Статистика раздачи
Нет
 
   
 
Top  
 
 
-Пришельцы / Посетители / Extraterrestrial (2014) WEB-DL [H.264/720p-LQ]- Год выпуска: 2014
Производство: Канада
Жанр: Ужасы, Фантастика
Описание фильма:
Группа друзей решает провести выходные в хижине в лесу, где сталкивается с пришельцами.
Режиссер: Колин Минихан
Продюсер: Шон Ангельски, Мартин Фишер, Ким Арнотт
Актеры: Бриттани Аллен, Фредди Строма, Мелани Папалиа, Джесси Мосс, Аня Савчич, Шон Роджерсон, Эмили Перкинс, Майк Ковач, Йен Браун, Фред Китинг
Перевод: Одноголосый закадровый, любительский
Озвучка / Автор перевода: datynet
Субтитры: Вшитые отключаемые
Язык субтитров: Английский

Дата мировой премьеры: 18 апреля 2014
Продолжительность: 01:40:40
Качество видео: WEB-DL
Видеокодек: MPEG-4 AVC/H.264
Битрейт видео: ~4024 kb/s
Размер кадра: 1280х532
Аудио 1: АС3 2.0, 192 kb/s, Русский
Аудио 2: АС3 5.1, 384 kb/s, Английский
Сэмпл: Скачать

MediaInfo:

Общее
Уникальный идентификатор : 236559384634167259266335764288551287688 (0xB1F7AE24D109C18EB0C818842C247B88)
Полное имя : C:Торренты\Пришельцы.2014.WEB-DL.720p.mkv
Формат : Matroska
Версия формата : Version 4 / Version 2
Размер файла : 3,30 Гбайт
Продолжительность : 1 ч. 40 м.
Общий поток : 4693 Кбит/сек
Дата кодирования : UTC 2014-10-22 11:32:55
Программа кодирования : mkvmerge v6.1.0 ('Old Devil') built on Mar 4 2013 09:10:42
Библиотека кодирования : libebml v1.3.0 + libmatroska v1.4.0
Видео
Идентификатор : 1
Формат : AVC
Формат/Информация : Advanced Video Codec
Профиль формата : Main@L3.1
Параметр CABAC формата : Нет
Параметр ReFrames формата : 2 кадра
Идентификатор кодека : V_MPEG4/ISO/AVC
Продолжительность : 1 ч. 40 м.
Битрейт : 4024 Кбит/сек
Ширина : 1280 пикселей
Высота : 532 пикселя
Соотношение сторон : 2,40:1
Режим частоты кадров : Постоянный
Частота кадров : 23,976 кадра/сек
Цветовое пространство : YUV
Субдискретизация насыщенности : 4:2:0
Битовая глубина : 8 бит
Тип развёртки : Прогрессивная
Бит/(Пиксели*Кадры) : 0.246
Размер потока : 2,83 Гбайт (86%)
Язык : English
Default : Да
Forced : Нет
Основные цвета : BT.709
Характеристики трансфера : BT.709
Коэффициенты матрицы : BT.709
Аудио #1
Идентификатор : 2
Формат : AC-3
Формат/Информация : Audio Coding 3
Расширение режима : CM (complete main)
Параметр Endianness формата : Big
Идентификатор кодека : A_AC3
Продолжительность : 1 ч. 40 м.
Вид битрейта : Постоянный
Битрейт : 192 Кбит/сек
Каналы : 2 канала
Расположение каналов : Front: L R
Частота : 44,1 КГц
Битовая глубина : 16 бит
Метод сжатия : С потерями
Размер потока : 138 Мбайт (4%)
Язык : Russian
Default : Да
Forced : Нет
Аудио #2
Идентификатор : 3
Формат : AC-3
Формат/Информация : Audio Coding 3
Расширение режима : CM (complete main)
Параметр Endianness формата : Big
Идентификатор кодека : A_AC3
Продолжительность : 1 ч. 40 м.
Вид битрейта : Постоянный
Битрейт : 384 Кбит/сек
Каналы : 6 каналов
Расположение каналов : Front: L C R, Side: L R, LFE
Частота : 48,0 КГц
Битовая глубина : 16 бит
Метод сжатия : С потерями
Размер потока : 277 Мбайт (8%)
Язык : English
Default : Нет
Forced : Нет
Текст
Идентификатор : 4
Формат : UTF-8
Идентификатор кодека : S_TEXT/UTF8
Идентификатор кодека/Информация : UTF-8 Plain Text
Язык : English
Default : Нет
Forced : Нет
Меню
00:00:00.000 : en:1
00:09:46.000 : en:2
00:20:27.000 : en:3
00:29:35.000 : en:4
00:40:33.000 : en:5
00:51:28.000 : en:6
00:59:34.000 : en:7
01:09:32.000 : en:8
01:20:00.000 : en:9
01:29:34.000 : en:10
01:37:36.000 : en:11
Скриншоты: Незабываем благодарить релизёров. Приятного просмотра.Время раздачи: с 10.00 до 22.00

[Цитировать]



Показать сообщения:    

Текущее время: 09-Дек 16:37

Часовой пояс: UTC + 3


Вы не можете начинать темы
Вы не можете отвечать на сообщения
Вы не можете редактировать свои сообщения
Вы не можете удалять свои сообщения
Вы не можете голосовать в опросах
Вы не можете прикреплять файлы к сообщениям
Вы не можете скачивать файлы

!ВНИМАНИЕ!
Сайт не предоставляет электронные версии произведений, а занимается лишь коллекционированием и каталогизацией ссылок, присылаемых и публикуемых на форуме нашими читателями. Если вы являетесь правообладателем какого-либо представленного материала и не желаете, чтобы ссылка на него находилась в нашем каталоге, свяжитесь с нами, и мы незамедлительно удалим ее. Файлы для обмена на трекере предоставлены пользователями сайта, и администрация не несет ответственности за их содержание. Просьба не заливать файлы, защищенные авторскими правами, а также файлы нелегального содержания!