[ Сегодня идет свободное скачивание без начисления Download ]


Статистика раздачи
Нет
 
   
 
Top  
 
 
-Звездная карта / Maps to the Stars (2014) HDRip- Год выпуска: 2014
Производство: Канада, США, Германия, Франция
Жанр: Драма
Режиссер: Дэвид Кроненберг
Продюсер: Саид Бен Саид, Мартин Кац, Мишель Меркт
Актеры: Джулианна Мур, Миа Васиковска, Джон Кьюсак, Эван Бёрд, Оливия Уильямс, Роберт Паттинсон, Кьяра Гласко, Сара Гадон, Доун Гринхалг, Джонатан Уоттон.
Описание фильма:
Место действия — два голливудских дома. В одном живет стареющая актриса, которая надеется сыграть роль собственной давно погибшей матери — легенды черно-белого кино. Другой особняк — резиденция сверхуспешного психотерапевта, его жены и их сына — 13-летнего миллионера, наркомана и звезды. В оба дома проникает девушка из Флориды, которая подружилась в твиттере с Кэрри Фишер и надеется с ее помощью покорить Лос-Анджелес.
Перевод: Одноголосый закадровый, Авторский [С.Визгунов]
Субтитры: Отсутствуют

Дата мировой премьеры: 19 мая 2014
Дата российской премьеры: 11 декабря 2014, «Top Film Distribution»
Продолжительность: 01:47:17
Качество видео: HDRip
Видеокодек: Xvid
Битрейт видео: ~1812 Kbps
Размер кадра: 720x384
Аудио #1: AC-3, 48 kHz, 5.1 Ch, 448 kbps (Rus) Авторский [С.Визгунов]
Аудио #2: AС-3, 48 kHz, 5.1 Ch, 448 kbps (Eng)
Сэмпл: Скачать

MI

Общее
Полное имя                               : G:\nnm-club(Раздачи)\Фильмы\Zvezdnaya.Karta.2014.P1.HDRip.2100MВ..avi
Формат                                   : AVI
Формат/Информация                        : Audio Video Interleave
Профиль формата                          : OpenDML
Размер файла                             : 2,04 Гбайт
Продолжительность                        : 1 ч. 47 м.
Общий поток                              : 2727 Кбит/сек
Программа кодирования                    : VirtualDubMod 1.5.10.2 (build 2540/release)
Библиотека кодирования                   : VirtualDubMod build 2540/release
Видео
Идентификатор                            : 0
Формат                                   : MPEG-4 Visual
Профиль формата                          : Advanced Simple@L5
Параметр BVOP формата                    : 2
Параметр QPel формата                    : Нет
Параметр GMC формата                     : Без точки перехода
Параметр матрицы формата                 : Default (MPEG)
Идентификатор кодека                     : XVID
Идентификатор кодека/Подсказка           : XviD
Продолжительность                        : 1 ч. 47 м.
Битрейт                                  : 1812 Кбит/сек
Ширина                                   : 720 пикселей
Высота                                   : 384 пикселя
Соотношение сторон                       : 1,85:1
Частота кадров                           : 25,000 кадров/сек
Цветовое пространство                    : YUV
Субдискретизация насыщенности            : 4:2:0
Битовая глубина                          : 8 бит
Тип развёртки                            : Прогрессивная
Метод сжатия                             : С потерями
Бит/(Пиксели*Кадры)                      : 0.262
Размер потока                            : 1,36 Гбайт (66%)
Библиотека кодирования                   : XviD 1.2.1 (UTC 2008-12-04)
Аудио #1
Идентификатор                            : 1
Формат                                   : AC-3
Формат/Информация                        : Audio Coding 3
Расширение режима                        : CM (complete main)
Параметр Endianness формата              : Big
Идентификатор кодека                     : 2000
Продолжительность                        : 1 ч. 47 м.
Вид битрейта                             : Постоянный
Битрейт                                  : 448 Кбит/сек
Каналы                                   : 6 каналов
Расположение каналов                     : Front: L C R, Side: L R, LFE
Частота                                  : 48,0 КГц
Битовая глубина                          : 16 бит
Метод сжатия                             : С потерями
Размер потока                            : 344 Мбайт (16%)
Выравнивание                             : Разделение по промежуткам
Продолжительность промежутка             : 40  мс. (1,00 видеокадр)
Время предзагрузки промежутка            : 500  мс.
Аудио #2
Идентификатор                            : 2
Формат                                   : AC-3
Формат/Информация                        : Audio Coding 3
Расширение режима                        : CM (complete main)
Параметр Endianness формата              : Big
Идентификатор кодека                     : 2000
Продолжительность                        : 1 ч. 47 м.
Вид битрейта                             : Постоянный
Битрейт                                  : 448 Кбит/сек
Каналы                                   : 6 каналов
Расположение каналов                     : Front: L C R, Side: L R, LFE
Частота                                  : 48,0 КГц
Битовая глубина                          : 16 бит
Метод сжатия                             : С потерями
Размер потока                            : 344 Мбайт (16%)
Выравнивание                             : Разделение по промежуткам
Продолжительность промежутка             : 40  мс. (1,00 видеокадр)
Время предзагрузки промежутка            : 500  мс.
Скриншоты:
Время раздачи: Пн-Пт с 18:00 до 22:00, Сб-Вс с 09:00 до 23:30

[Цитировать]

Топик был перенесен из форума Новинки кинопроката в форум Драма
Henkok



Показать сообщения:    

Текущее время: 02-Дек 21:03

Часовой пояс: UTC + 3


Вы не можете начинать темы
Вы не можете отвечать на сообщения
Вы не можете редактировать свои сообщения
Вы не можете удалять свои сообщения
Вы не можете голосовать в опросах
Вы не можете прикреплять файлы к сообщениям
Вы не можете скачивать файлы

!ВНИМАНИЕ!
Сайт не предоставляет электронные версии произведений, а занимается лишь коллекционированием и каталогизацией ссылок, присылаемых и публикуемых на форуме нашими читателями. Если вы являетесь правообладателем какого-либо представленного материала и не желаете, чтобы ссылка на него находилась в нашем каталоге, свяжитесь с нами, и мы незамедлительно удалим ее. Файлы для обмена на трекере предоставлены пользователями сайта, и администрация не несет ответственности за их содержание. Просьба не заливать файлы, защищенные авторскими правами, а также файлы нелегального содержания!