[ Сегодня идет свободное скачивание без начисления Download ]


Статистика раздачи
Нет
 
   
 
Top  
 
 
-Шаг вперёд: Всё или ничего / Step Up All In (2014) BDRip [720p]- Год выпуска: 2014
Производство: США / Offspring Entertainment, Summit Entertainment
Жанр: Драма, Мелодрама, Музыкальный
Режиссер: Триш Си
Продюсер: Дженнифер Джибгот, Адам Шенкман, Джефф Диаз
Актеры: Райан Гузман, Бриана Эвиган, Стивен Босс, Миша Гэбриел Хэмилтон, Изабелла Мико, Элисон Стоунер, Адам Дж. Севани, Стивен Стево Джонс, Дэвид Шрейбман, Мари Кода
Описание фильма:
В переливающемся огнями Лас-Вегасе лучшие танцоры планеты сойдутся в батле, который решит все. Талантливый самоучка Шон и красотка Энди, мечтающие о славе и богатстве, примут участие в популярном реалити-шоу и бросят вызов «непобедимым» командам противников, а главное — самим себе. Смогут ли они преодолеть страх, пережить предательство и обуздать страсть, чтобы стать первыми и осуществить свои мечты?
Перевод: Дублированный (iTunes)
Субтитры: Вшитые отключаемые
Язык субтитров: Английский

Дата мировой премьеры: 9 июля 2014
Дата российской премьеры: 17 июля 2014, «Централ Партнершип»
Дата украинской премьеры: 24 июля 2014, «Интерфильм»
Продолжительность: 01:51:51
Качество видео: BDRip [Profile LQ]
Видеокодек: MPEG-4/H.264
Битрейт видео: ~4949 Kbps
Размер кадра: 1280x720
Аудио #1: Русский - AC3, 48.0 KHz, 6 ch, 384 Kbps, CBR
Аудио #2: Английский - AC3, 48.0 KHz, 6 ch, 640 Kbps, CBR
Сэмпл: Скачать

MediaInfo:

Общее
Уникальный идентификатор : 243161366345253063424378819181868058581 (0xB6EF2CF91E4998EBB6FDEE973D5987D5)
Полное имя : D:\Фильмы\Shag.vpered.Vse.ili.nichego.2014.D.BDRip.720p.mkv
Формат : Matroska
Версия формата : Version 4 / Version 2
Размер файла : 4,68 Гбайт
Продолжительность : 1 ч. 51 м.
Общий поток : 5984 Кбит/сек
Дата кодирования : UTC 2014-10-23 16:06:53
Программа кодирования : mkvmerge v7.2.0 ('On Every Street') 64bit built on Sep 13 2014 15:52:10
Библиотека кодирования : libebml v1.3.0 + libmatroska v1.4.1
DURATION : 01:48:41.360000000
NUMBER_OF_FRAMES : 1212
NUMBER_OF_BYTES : 3827323
_STATISTICS_WRITING_APP : mkvmerge v7.2.0 ('On Every Street') 64bit built on Sep 13 2014 15:52:10
_STATISTICS_WRITING_DATE_UTC : 2014-10-23 16:06:53
_STATISTICS_TAGS : BPS DURATION NUMBER_OF_FRAMES NUMBER_OF_BYTES
Attachment : Yes
Видео
Идентификатор : 1
Формат : AVC
Формат/Информация : Advanced Video Codec
Профиль формата : [email protected]
Параметр CABAC формата : Да
Параметр ReFrames формата : 5 кадров
Идентификатор кодека : V_MPEG4/ISO/AVC
Продолжительность : 1 ч. 51 м.
Битрейт : 4949 Кбит/сек
Ширина : 1280 пикселей
Высота : 720 пикселей
Соотношение сторон : 16:9
Режим частоты кадров : Постоянный
Частота кадров : 23,976 кадра/сек
Цветовое пространство : YUV
Субдискретизация насыщенности : 4:2:0
Битовая глубина : 8 бит
Тип развёртки : Прогрессивная
Бит/(Пиксели*Кадры) : 0.224
Размер потока : 3,78 Гбайт (81%)
Библиотека кодирования : x264 core 142 r2479 dd79a61
Настройки программы : cabac=1 / ref=5 / deblock=1:0:0 / analyse=0x3:0x133 / me=umh / subme=7 / psy=1 / psy_rd=1.00:0.00 / mixed_ref=1 / me_range=16 / chroma_me=1 / trellis=1 / 8x8dct=1 / cqm=0 / deadzone=21,11 / fast_pskip=0 / chroma_qp_offset=-2 / threads=18 / lookahead_threads=3 / sliced_threads=0 / nr=0 / decimate=1 / interlaced=0 / bluray_compat=0 / constrained_intra=0 / bframes=3 / b_pyramid=2 / b_adapt=2 / b_bias=0 / direct=3 / weightb=1 / open_gop=0 / weightp=2 / keyint=250 / keyint_min=23 / scenecut=40 / intra_refresh=0 / rc_lookahead=50 / rc=2pass / mbtree=1 / bitrate=4949 / ratetol=1.0 / qcomp=0.60 / qpmin=0 / qpmax=69 / qpstep=4 / cplxblur=20.0 / qblur=0.5 / ip_ratio=1.40 / aq=1:1.00
Язык : English
Default : Да
Forced : Нет
DURATION : 01:51:51.705000000
NUMBER_OF_FRAMES : 160920
NUMBER_OF_BYTES : 4150807325
_STATISTICS_WRITING_APP : mkvmerge v7.2.0 ('On Every Street') 64bit built on Sep 13 2014 15:52:10
_STATISTICS_WRITING_DATE_UTC : 2014-10-23 16:06:53
_STATISTICS_TAGS : BPS DURATION NUMBER_OF_FRAMES NUMBER_OF_BYTES
Аудио #1
Идентификатор : 2
Формат : AC-3
Формат/Информация : Audio Coding 3
Расширение режима : CM (complete main)
Параметр Endianness формата : Big
Идентификатор кодека : A_AC3
Продолжительность : 1 ч. 51 м.
Вид битрейта : Постоянный
Битрейт : 384 Кбит/сек
Каналы : 6 каналов
Расположение каналов : Front: L C R, Side: L R, LFE
Частота : 48,0 КГц
Битовая глубина : 16 бит
Метод сжатия : С потерями
Размер потока : 307 Мбайт (6%)
Язык : Russian
Default : Да
Forced : Нет
Аудио #2
Идентификатор : 3
Формат : AC-3
Формат/Информация : Audio Coding 3
Расширение режима : CM (complete main)
Параметр Endianness формата : Big
Идентификатор кодека : A_AC3
Продолжительность : 1 ч. 51 м.
Вид битрейта : Постоянный
Битрейт : 640 Кбит/сек
Каналы : 6 каналов
Расположение каналов : Front: L C R, Side: L R, LFE
Частота : 48,0 КГц
Битовая глубина : 16 бит
Метод сжатия : С потерями
Размер потока : 512 Мбайт (11%)
Язык : English
Default : Нет
Forced : Нет
Текст #1
Идентификатор : 4
Формат : VobSub
Режим смешивания : zlib
Идентификатор кодека : S_VOBSUB
Идентификатор кодека/Информация : The same subtitle format used on DVDs
Язык : English
Default : Нет
Forced : Нет
Текст #2
Идентификатор : 5
Формат : VobSub
Режим смешивания : zlib
Идентификатор кодека : S_VOBSUB
Идентификатор кодека/Информация : The same subtitle format used on DVDs
Язык : English
Default : Нет
Forced : Нет
Меню
00:00:00.000 : en:00:00:00.000
00:05:40.298 : en:00:05:40.298
00:12:12.690 : en:00:12:12.690
00:19:04.977 : en:00:19:04.977
00:26:09.693 : en:00:26:09.693
00:32:55.849 : en:00:32:55.849
00:39:16.813 : en:00:39:16.813
00:46:30.287 : en:00:46:30.287
00:55:57.521 : en:00:55:57.521
01:03:04.197 : en:01:03:04.197
01:07:06.189 : en:01:07:06.189
01:14:23.000 : en:01:14:23.000
01:22:08.298 : en:01:22:08.298
01:29:23.400 : en:01:29:23.400
01:35:56.584 : en:01:35:56.584
01:43:34.083 : en:01:43:34.083

Avdump:

File: D:\Фильмы\Shag.vpered.Vse.ili.nichego.2014.D.BDRip.720p.mkv
Duration: 01:51:52 (6711.78)
Track #1: video
lang: Unknown (1)
codc: V_MPEG4/ISO/AVC -> H264/AVC (22)
reso: 1280x720 -> 16:9
fram: 23.976 fps
rate: 4948 kbps (4947.58)
dura: 01:51:52 (6711.66)
size: 3.87 GB (4150807325)
Track #2: audio
lang: rus -> Russian (15)
codc: A_AC3 -> AC3 (2)
chan: 6 -> 5.1 Surround
samp: 48000 Hz
rate: 384 kbps (384.03)
dura: 01:51:52 (6711.65)
size: 307.26 MB (322188123)
Track #3: audio
lang: Unknown (1)
codc: A_AC3 -> AC3 (2)
chan: 6 -> 5.1 Surround
samp: 48000 Hz
rate: 640 kbps (640.04)
dura: 01:51:52 (6711.65)
size: 512.09 MB (536969571)
Track #4: subtitles
lang: Unknown (1)
type: S_VOBSUB -> VobSub (9)
size: 4.15 MB (4349370)
Track #5: subtitles
lang: Unknown (1)
type: S_VOBSUB -> VobSub (9)
size: 3.65 MB (3827323)
Sizes: (check sanity)
disk: 4.68 GB (5020413571)
atts: 434.60 KB (445033)
trac: 4.67 GB (5018141712) [based on track size]
bitr: 4.67 GB (5009966872) [based on bitrate]
tdif: 1.74 MB (1826826) 0.03%
bdif: 9.54 MB (10001665) 0.19%
Скриншоты: Время раздачи: 24/7
(до 5 скачавших)

[Цитировать]



Показать сообщения:    

Текущее время: 05-Дек 21:44

Часовой пояс: UTC + 3


Вы не можете начинать темы
Вы не можете отвечать на сообщения
Вы не можете редактировать свои сообщения
Вы не можете удалять свои сообщения
Вы не можете голосовать в опросах
Вы не можете прикреплять файлы к сообщениям
Вы не можете скачивать файлы

!ВНИМАНИЕ!
Сайт не предоставляет электронные версии произведений, а занимается лишь коллекционированием и каталогизацией ссылок, присылаемых и публикуемых на форуме нашими читателями. Если вы являетесь правообладателем какого-либо представленного материала и не желаете, чтобы ссылка на него находилась в нашем каталоге, свяжитесь с нами, и мы незамедлительно удалим ее. Файлы для обмена на трекере предоставлены пользователями сайта, и администрация не несет ответственности за их содержание. Просьба не заливать файлы, защищенные авторскими правами, а также файлы нелегального содержания!