[ Сегодня идет свободное скачивание без начисления Download ]


Статистика раздачи
Нет
 
   
 
Top  
 
 
-Самый опасный человек / A Most Wanted Man (2014) BDRip-«Каждая война начинается со страха. Каждое предательство начинается с доверия»- Год выпуска: 2014
Производство: Великобритания, США, Германия / Amusement Park Films
Жанр: Триллер
Перевод: Дублированный (Чистый звук)
Субтитры: Вшитые отключаемые
Язык субтитров: Английский
Дата мировой премьеры: 22 июля 2014
Дата российской премьеры: 11 сентября 2014, «Вольга»
Дата выхода DVD релиза: 6 ноября 2014, «Вольга»
Режиссер: Антон Корбейн
Продюсер: Андреа Колдервуд, Саймон Корнвэлл, Стивен Корнуэлл
Актеры: Григорий Добрыгин, Филип Сеймур Хоффман, Хомаюн Эршади, Мехди Дехби, Нил Малик Абдулла, Нина Хосс, Даниэль Брюль, Вики Крипс, Костя Улльман, Франц Хартвиг
Описание фильма:
Каждая война начинается со страха. Каждое предательство начинается с доверия. Глава секретного подразделения разведки получает задание найти опасного международного беглеца Ису Карпова, которого из симпатии укрывает молодая девушка-адвокат. Когда в погоню вступают разведки других стран, начинается большая шпионская игра, в которой любой может оказаться наживкой или акулой. А национальная безопасность нередко зависит от простых человеческих чувств.

Продолжительность: 02:02:23
Качество видео: BDRip (CHD)
Видеокодек: MPEG-4 AVC/H.264
Битрейт видео: ~10186 Kbps
Размер кадра: 1920 х 816
Аудио 1: Русский, AC3 2.0, 384 kbps, 48 kHz (DUB, Line)
Аудио 2: Английский, DTS 5.1, 1509 kbps, 48 kHz (Оригинал)
Сэмпл: Скачать

Знаете ли вы, что...

• Экранизация одноименного романа Джона ле Карре, опубликованного в 2008-м году.
• Режиссер Антон Корбейн снялся в эпизодической роли. Когда по телевизору показывают пресс-конференцию, его можно увидеть сидящим рядом с Хомаюном Эршади (Абдулла).
• Эми Адамс, Кэри Маллиган и Джессика Честейн рассматривались на роль Аннабель Рихтер.
• События фильма разворачиваются в Гамбурге. Джон ле Карре, автор романа, по которому снят фильм, работал на британскую разведку MI5 и MI6 в 1950-х и 1960-х годах. Он работал в Берлине и Гамбурге. Ле Карре был в Берлине во время постройки Берлинской стены. А в Гамбурге он работал одновременно консулом и агентом.
• Один из продюсеров этого фильма, Стивен Корнуэлл, является сыном Джона ле Карре. Этот фильм стал их первой совместной работой.
• Роман Джона ле Карре, по которому снят фильм, основан на реальной жизни Мурата Курназа, гражданина Турции, легально проживающего в Германии, который был арестован в Пакистане по подозрению в причастности к теракту в США, произошедшему 11 сентября 2001 года. После чего его отправили на американскую военную базу в Кандагаре (Афганистан), а затем в тюрьму в Гуантанамо (Куба), где он пробыл 5 лет.
• 22 июля 2008 года была выпущена 9-минутная короткометражка, в которой Джон ле Карре рассказывает о своем романе «Самый опасный человек». Эту короткометражку снял Саймон Ченнинг-Вильямс, который занимался продюсированием экранизации другого романа Джона ле Карре — «Преданный садовник» (2005).
• Специально для роли Аннабель Рихтер Рэйчел МакАдамс научилась разговаривать с немецким акцентом.

Ошибки в фильме

• Машина, на которой Гюнтер Бахманн ездит в фильме, это W-126 S Mercedes цвета зеленый металлик. Ближе к концу фильма на машине пропадает вмятина на крыле, а также она меняет цвет на синий металлик.

MediaInfo:

Общее
Уникальный идентификатор : 190782572275555839654814682438867407629 (0x8F87630AA6A88DEF9BB15E3B2048D30D)
Полное имя : D:\Films\A.Most.Wanted.Man.2014.BDRip.1080p.mkv
Формат : Matroska
Версия формата : Version 2
Размер файла : 10,3 Гбайт
Продолжительность : 2 ч. 2 м.
Общий поток : 12,1 Мбит/сек
Название фильма : A.Most.Wanted.Man.2014.BluRay.1080p.DTS.x264-CHD
Дата кодирования : UTC 2014-10-25 17:26:04
Программа кодирования : mkvmerge v5.2.0 ('I can't explain') built on Dec 18 2011 18:12:03
Библиотека кодирования : libebml v1.2.3 + libmatroska v1.3.0
Видео
Идентификатор : 1
Формат : AVC
Формат/Информация : Advanced Video Codec
Профиль формата : High@L4.1
Параметр CABAC формата : Да
Параметр ReFrames формата : 5 кадров
Идентификатор кодека : V_MPEG4/ISO/AVC
Продолжительность : 2 ч. 2 м.
Битрейт : 10,2 Мбит/сек
Ширина : 1920 пикселей
Высота : 816 пикселей
Соотношение сторон : 2,35:1
Режим частоты кадров : Постоянный
Частота кадров : 23,976 кадра/сек
Цветовое пространство : YUV
Субдискретизация насыщенности : 4:2:0
Битовая глубина : 8 бит
Тип развёртки : Прогрессивная
Бит/(Пиксели*Кадры) : 0.271
Размер потока : 8,50 Гбайт (82%)
Заголовок : Anonymous@CHD
Библиотека кодирования : x264 core 142 r2431 ac76440
Настройки программы : cabac=1 / ref=5 / deblock=1:-3:-3 / analyse=0x3:0x113 / me=umh / subme=10 / psy=1 / psy_rd=1.00:0.05 / mixed_ref=1 / me_range=32 / chroma_me=1 / trellis=2 / 8x8dct=1 / cqm=0 / deadzone=21,11 / fast_pskip=0 / chroma_qp_offset=-2 / threads=18 / lookahead_threads=1 / sliced_threads=0 / nr=0 / decimate=1 / interlaced=0 / bluray_compat=0 / constrained_intra=0 / bframes=5 / b_pyramid=2 / b_adapt=2 / b_bias=0 / direct=3 / weightb=1 / open_gop=0 / weightp=2 / keyint=250 / keyint_min=23 / scenecut=40 / intra_refresh=0 / rc=2pass / mbtree=0 / bitrate=10186 / ratetol=1.0 / qcomp=0.70 / qpmin=0 / qpmax=69 / qpstep=4 / cplxblur=20.0 / qblur=0.5 / ip_ratio=1.40 / pb_ratio=1.30 / aq=2:0.90
Язык : English
Default : Да
Forced : Нет
Аудио #1
Идентификатор : 2
Формат : AC-3
Формат/Информация : Audio Coding 3
Расширение режима : CM (complete main)
Параметр Endianness формата : Big
Идентификатор кодека : A_AC3
Продолжительность : 2 ч. 2 м.
Вид битрейта : Постоянный
Битрейт : 384 Кбит/сек
Каналы : 2 канала
Расположение каналов : Front: L R
Частота : 48,0 КГц
Битовая глубина : 16 бит
Метод сжатия : С потерями
Размер потока : 336 Мбайт (3%)
Заголовок : DUB, Line
Язык : Russian
Default : Да
Forced : Нет
Аудио #2
Идентификатор : 3
Формат : DTS
Формат/Информация : Digital Theater Systems
Режим : 16
Параметр Endianness формата : Big
Идентификатор кодека : A_DTS
Продолжительность : 2 ч. 2 м.
Вид битрейта : Постоянный
Битрейт : 1509 Кбит/сек
Каналы : 6 каналов
Расположение каналов : Front: L C R, Side: L R, LFE
Частота : 48,0 КГц
Битовая глубина : 24 бит
Метод сжатия : С потерями
Размер потока : 1,29 Гбайт (12%)
Заголовок : Original
Язык : English
Default : Нет
Forced : Нет
Текст #1
Идентификатор : 4
Формат : UTF-8
Идентификатор кодека : S_TEXT/UTF8
Идентификатор кодека/Информация : UTF-8 Plain Text
Заголовок : Full
Язык : English
Default : Нет
Forced : Нет
Текст #2
Идентификатор : 5
Формат : UTF-8
Идентификатор кодека : S_TEXT/UTF8
Идентификатор кодека/Информация : UTF-8 Plain Text
Заголовок : SDH
Язык : English
Default : Нет
Forced : Нет
Меню
00:00:00.000 : en:00:00:00.000
00:08:26.256 : en:00:08:26.256
00:15:38.771 : en:00:15:38.771
00:24:58.872 : en:00:24:58.872
00:30:40.047 : en:00:30:40.047
00:37:54.147 : en:00:37:54.147
00:47:22.381 : en:00:47:22.381
00:52:45.079 : en:00:52:45.079
01:02:10.602 : en:01:02:10.602
01:09:44.430 : en:01:09:44.430
01:16:51.816 : en:01:16:51.816
01:25:22.826 : en:01:25:22.826
01:32:06.229 : en:01:32:06.229
01:40:02.914 : en:01:40:02.914
01:49:38.322 : en:01:49:38.322
01:55:53.029 : en:01:55:53.029
----------------x264iNFO----------------
x264 [info]: frame I:1212 Avg QP:14.49 size:219301
x264 [info]: frame P:41486 Avg QP:17.02 size: 96714
x264 [info]: frame B:133373 Avg QP:18.94 size: 37990
-Скриншоты: -Время раздачи: С 8:00 до 22:00 до 5 скачавших

[Цитировать]



Показать сообщения:    

Текущее время: 24-Июн 14:57

Часовой пояс: UTC + 6


Вы не можете начинать темы
Вы не можете отвечать на сообщения
Вы не можете редактировать свои сообщения
Вы не можете удалять свои сообщения
Вы не можете голосовать в опросах
Вы не можете прикреплять файлы к сообщениям
Вы не можете скачивать файлы

!ВНИМАНИЕ!
Сайт не предоставляет электронные версии произведений, а занимается лишь коллекционированием и каталогизацией ссылок, присылаемых и публикуемых на форуме нашими читателями. Если вы являетесь правообладателем какого-либо представленного материала и не желаете, чтобы ссылка на него находилась в нашем каталоге, свяжитесь с нами, и мы незамедлительно удалим ее. Файлы для обмена на трекере предоставлены пользователями сайта, и администрация не несет ответственности за их содержание. Просьба не заливать файлы, защищенные авторскими правами, а также файлы нелегального содержания!