[ Сегодня идет свободное скачивание без начисления Download ]


Статистика раздачи
Нет
 
   
 
Top  
 
 
-Страховщик / Automata (2014) BDRip [Line] - Год выпуска: 2014
Производство: Испания, Болгария, Green Moon, Nu Boyana Viburno
Жанр: Фантастика, Триллер
Перевод: Дублированный
Субтитры: Отсутствуют
Дата мировой премьеры: 20 сентября 2014
Дата российской премьеры: 16 октября 2014, «Парадиз»
Режиссер: Габе Ибаньес
Продюсер: Антонио Бандерас, Сандра Эрмида, Дэнни Лернер
Актеры: Антонио Бандерас, Биргитта Йорт Сёренсен, Мелани Гриффит, Дилан МакДермотт, Роберт Форстер, Тим МакИннерни, Энди Найман, Дэвид Райалл, Эндрю Тирнан, Криста Кэмпбелл
Описание фильма:
Главным героем фильма станет страховой агент компании по изготовлению роботов Жак Вокан, который обнаруживает, что изобретаемые роботы создаются не для эксплуатации, а для истребления.

Продолжительность: 01:49:54
Качество видео: BDRip
Видеокодек: MPEG-4 AVC/H.264
Битрейт видео: ~9 323 кбит/с
Размер кадра: 1920x 816
Аудио »1: 48 kHz, AC3 Dolby Digital, 2/0 (L,R) ch, ~384.00 kbps avg (Русский) / Дубляж
Аудио »2: 48 kHz, AC3 Dolby Digital, 3/2 (L,C,R,l,r) + LFE ch, ~320.00 kbps avg (Английский) / ОригиналСкриншоты:

MediaInfo

Unique ID : 250362269332715149220073801529660097565 (0xBC5A04E6B43169958BA4143EDF55441D)
Format : Matroska
Format version : Version 4 / Version 2
File size : 7.95 GiB
Duration : 1h 49mn
Overall bit rate : 10.4 Mbps
Encoded date : UTC 2014-10-29 22:23:09
Writing application : mkvmerge v7.1.0 ('Good Love') 64bit built on Jul 27 2014 13:06:55
Writing library : libebml v1.3.0 + libmatroska v1.4.1
_STATISTICS_WRITING_APP : mkvmerge v7.1.0 ('Good Love') 64bit built on Jul 27 2014 13:06:55
_STATISTICS_WRITING_DATE_UTC : 2014-10-29 22:23:09
_STATISTICS_TAGS : BPS DURATION NUMBER_OF_FRAMES NUMBER_OF_BYTES
DURATION : 01:21:02.438000000
NUMBER_OF_FRAMES : 817
NUMBER_OF_BYTES : 1905546
Video
ID : 1
Format : AVC
Format/Info : Advanced Video Codec
Format profile : [email protected]
Format settings, CABAC : Yes
Format settings, ReFrames : 5 frames
Codec ID : V_MPEG4/ISO/AVC
Duration : 1h 49mn
Bit rate : 9 323 Kbps
Width : 1 920 pixels
Height : 816 pixels
Display aspect ratio : 2.35:1
Frame rate mode : Constant
Frame rate : 23.976 fps
Color space : YUV
Chroma subsampling : 4:2:0
Bit depth : 8 bits
Scan type : Progressive
Bits/(Pixel*Frame) : 0.248
Stream size : 7.00 GiB (88%)
Writing library : x264 core 142 r2479 dd79a61
Encoding settings : cabac=1 / ref=5 / deblock=1:0:0 / analyse=0x3:0x133 / me=umh / subme=7 / psy=1 / psy_rd=1.00:0.00 / mixed_ref=1 / me_range=16 / chroma_me=1 / trellis=1 / 8x8dct=1 / cqm=0 / deadzone=21,11 / fast_pskip=0 / chroma_qp_offset=-2 / threads=12 / lookahead_threads=2 / sliced_threads=0 / nr=0 / decimate=1 / interlaced=0 / bluray_compat=0 / constrained_intra=0 / bframes=3 / b_pyramid=2 / b_adapt=1 / b_bias=0 / direct=1 / weightb=1 / open_gop=0 / weightp=2 / keyint=250 / keyint_min=23 / scenecut=40 / intra_refresh=0 / rc_lookahead=40 / rc=2pass / mbtree=1 / bitrate=9323 / ratetol=1.0 / qcomp=0.60 / qpmin=0 / qpmax=69 / qpstep=4 / cplxblur=20.0 / qblur=0.5 / ip_ratio=1.40 / aq=1:1.00
Language : English
Default : Yes
Forced : No
DURATION : 01:49:54.098000000
NUMBER_OF_FRAMES : 158100
NUMBER_OF_BYTES : 7684810419
_STATISTICS_WRITING_APP : mkvmerge v7.1.0 ('Good Love') 64bit built on Jul 27 2014 13:06:55
_STATISTICS_WRITING_DATE_UTC : 2014-10-29 22:23:09
_STATISTICS_TAGS : BPS DURATION NUMBER_OF_FRAMES NUMBER_OF_BYTES
Audio #1
ID : 2
Format : AC-3
Format/Info : Audio Coding 3
Mode extension : CM (complete main)
Format settings, Endianness : Big
Codec ID : A_AC3
Duration : 1h 49mn
Bit rate mode : Constant
Bit rate : 384 Kbps
Channel(s) : 2 channels
Channel positions : Front: L R
Sampling rate : 48.0 KHz
Bit depth : 16 bits
Compression mode : Lossy
Stream size : 302 MiB (4%)
Default : No
Forced : No
Audio #2
ID : 3
Format : AC-3
Format/Info : Audio Coding 3
Mode extension : CM (complete main)
Format settings, Endianness : Big
Codec ID : A_AC3
Duration : 1h 49mn
Bit rate mode : Constant
Bit rate : 640 Kbps
Channel(s) : 6 channels
Channel positions : Front: L C R, Side: L R, LFE
Sampling rate : 48.0 KHz
Bit depth : 16 bits
Compression mode : Lossy
Stream size : 503 MiB (6%)
Language : English
Default : Yes
Forced : No
Menu
00:00:00.000 : en:00:00:00.000
00:09:40.455 : en:00:09:40.455
00:18:46.917 : en:00:18:46.917
00:28:32.836 : en:00:28:32.836
00:39:07.095 : en:00:39:07.095
00:47:33.476 : en:00:47:33.476
00:56:55.954 : en:00:56:55.954
01:06:05.503 : en:01:06:05.503
01:17:27.810 : en:01:17:27.810
01:26:11.958 : en:01:26:11.958
01:34:06.474 : en:01:34:06.474
01:44:53.412 : en:01:44:53.412
Время раздачи: круглосуточно

[Цитировать]



Показать сообщения:    

Текущее время: 04-Дек 17:22

Часовой пояс: UTC + 3


Вы не можете начинать темы
Вы не можете отвечать на сообщения
Вы не можете редактировать свои сообщения
Вы не можете удалять свои сообщения
Вы не можете голосовать в опросах
Вы не можете прикреплять файлы к сообщениям
Вы не можете скачивать файлы

!ВНИМАНИЕ!
Сайт не предоставляет электронные версии произведений, а занимается лишь коллекционированием и каталогизацией ссылок, присылаемых и публикуемых на форуме нашими читателями. Если вы являетесь правообладателем какого-либо представленного материала и не желаете, чтобы ссылка на него находилась в нашем каталоге, свяжитесь с нами, и мы незамедлительно удалим ее. Файлы для обмена на трекере предоставлены пользователями сайта, и администрация не несет ответственности за их содержание. Просьба не заливать файлы, защищенные авторскими правами, а также файлы нелегального содержания!