[ Сегодня идет свободное скачивание без начисления Download ]


Статистика раздачи
Нет
 
   
 
Top  
 
 
-Навстречу шторму / Into the Storm (2014) BDRip- Год выпуска: 2014
Производство: США, Broken Road Productions, New Line Cinema, Village Roadshow
Жанр: Приключения, Боевик, Триллер
Перевод: Дублированный (iTunes)
Субтитры: Вшитые отключаемые
Язык субтитров: Русский, английский
Режиссер: Стивен Куэйл
Продюсер: Тодд Гарнер, В. Марк МакНейр, Шон Робинс
Актеры: Ричард Армитедж, Сара Уэйн Кэллис, Мэтт Уолш, Макс Дикон, Нэйтан Кресс, Алисия Дебнем Кери, Арлен Эскарпета, Джереми Самптер, Ли Уитэйкер, Кайл Дэвис
Описание фильма:
Всего лишь за один день невероятное «нашествие» смерчей практически уничтожило городок Сильверстон. Все его жители были отданы на растерзание непредсказуемым и смертельно опасным торнадо, и при этом метеорологи говорят, что худшее еще впереди. Большинство ищут убежища, в то время как немногие смельчаки идут навстречу стихии, испытывая себя: насколько далеко сможет зайти «охотник за торнадо» ради одного единственного — зато какого! — снимка.-
Дата мировой премьеры: 28 июля 201
Дата российской премьеры: 7 августа 2014, «Каро-Премьер»
Дата украинской премьеры: 7 августа 2014, «Киномания»
Дата выхода DVD/Blu-Ray релиза: 13 ноября 2014, «CP Дистрибуция»-Релиз от:
Продолжительность: 01:29:17
Качество видео: BDRip ([email protected])
Видеокодек: MPEG-4 AVC/H.264
Битрейт видео: ~5488 Kbps
Размер кадра: 1280 X 720
Aудио 1: Русский: 48 kHz, AC3, 5.1 ch, ~384.00 kbps
Aудио 2: Английский: 48 kHz, DTS 5.1 ch, ~ 1509 Kbps

h.264 log:

x264 [info]: frame I:771 Avg QP:15.67 size:189215 x264 [info]: frame P:37669 Avg QP:17.05 size: 93890 x264 [info]: frame B:90010 Avg QP:18.97 size: 40031

MediaInfo:

Общее
Уникальный идентификатор : 216478232350781557465654764244102495995 (0xA2DC30E5537C2410B5D57724311F3EFB)
Полное имя : \Навстречу.шторму_Into.the.Storm.2014.BDRip.720p.mkv
Формат : Matroska
Версия формата : Version 4 / Version 2
Размер файла : 4,59 Гбайт
Продолжительность : 1 ч. 29 м.
Общий поток : 7365 Кбит/сек
Название фильма : Навстречу.шторму_Into.the.Storm.2014.BDRip.720p
Дата кодирования : UTC 2010-02-22 21:41:31
Программа кодирования : mkvmerge v5.8.0 ('No Sleep / Pillow') built on Nov 13 2012 19:43:22
Библиотека кодирования : libebml v1.3.0 + libmatroska v1.4.0
Видео
Идентификатор : 1
Формат : AVC
Формат/Информация : Advanced Video Codec
Профиль формата : [email protected]
Параметр CABAC формата : Да
Параметр ReFrames формата : 9 кадров
Идентификатор кодека : V_MPEG4/ISO/AVC
Продолжительность : 1 ч. 29 м.
Битрейт : 5488 Кбит/сек
Ширина : 1280 пикселей
Высота : 720 пикселей
Соотношение сторон : 16:9
Режим частоты кадров : Постоянный
Частота кадров : 23,976 кадра/сек
Цветовое пространство : YUV
Субдискретизация насыщенности : 4:2:0
Битовая глубина : 8 бит
Тип развёртки : Прогрессивная
Бит/(Пиксели*Кадры) : 0.248
Размер потока : 3,32 Гбайт (72%)
Заголовок : Навстречу.шторму_Into.the.Storm.2014.BDRip.720p
Библиотека кодирования : x264 core 142 r2431 ac76440
Настройки программы : cabac=1 / ref=9 / deblock=1:-3:-3 / analyse=0x3:0x113 / me=umh / subme=10 / psy=1 / psy_rd=1.00:0.05 / mixed_ref=1 / me_range=32 / chroma_me=1 / trellis=2 / 8x8dct=1 / cqm=0 / deadzone=21,11 / fast_pskip=0 / chroma_qp_offset=-2 / threads=18 / lookahead_threads=1 / sliced_threads=0 / nr=0 / decimate=1 / interlaced=0 / bluray_compat=0 / constrained_intra=0 / bframes=4 / b_pyramid=2 / b_adapt=2 / b_bias=0 / direct=3 / weightb=1 / open_gop=0 / weightp=2 / keyint=250 / keyint_min=23 / scenecut=40 / intra_refresh=0 / rc=2pass / mbtree=0 / bitrate=5488 / ratetol=1.0 / qcomp=0.70 / qpmin=0 / qpmax=69 / qpstep=4 / cplxblur=20.0 / qblur=0.5 / ip_ratio=1.40 / pb_ratio=1.30 / aq=2:0.90
Язык : English
Default : Да
Forced : Нет
Аудио #1
Идентификатор : 2
Формат : AC-3
Формат/Информация : Audio Coding 3
Расширение режима : CM (complete main)
Параметр Endianness формата : Big
Идентификатор кодека : A_AC3
Продолжительность : 1 ч. 29 м.
Вид битрейта : Постоянный
Битрейт : 384 Кбит/сек
Каналы : 6 каналов
Расположение каналов : Front: L C R, Side: L R, LFE
Частота : 48,0 КГц
Битовая глубина : 16 бит
Метод сжатия : С потерями
Размер потока : 245 Мбайт (5%)
Заголовок : Дублированный [iTunes Russia]
Язык : Russian
Default : Да
Forced : Нет
Аудио #2
Идентификатор : 3
Формат : DTS
Формат/Информация : Digital Theater Systems
Режим : 16
Параметр Endianness формата : Big
Идентификатор кодека : A_DTS
Продолжительность : 1 ч. 29 м.
Вид битрейта : Постоянный
Битрейт : 1509 Кбит/сек
Каналы : 6 каналов
Расположение каналов : Front: L C R, Side: L R, LFE
Частота : 48,0 КГц
Битовая глубина : 24 бит
Метод сжатия : С потерями
Размер потока : 964 Мбайт (20%)
Заголовок : English DTS 5.1 1509Kbps
Язык : English
Default : Нет
Forced : Нет
Текст #1
Идентификатор : 4
Формат : UTF-8
Идентификатор кодека : S_TEXT/UTF8
Идентификатор кодека/Информация : UTF-8 Plain Text
Язык : Russian
Default : Нет
Forced : Нет
Текст #2
Идентификатор : 5
Формат : UTF-8
Идентификатор кодека : S_TEXT/UTF8
Идентификатор кодека/Информация : UTF-8 Plain Text
Язык : English
Default : Нет
Forced : Нет
Меню
00:00:00.000 : en:00:00:00.000
00:09:37.202 : en:00:09:37.202
00:19:58.030 : en:00:19:58.030
00:29:52.249 : en:00:29:52.249
00:38:48.409 : en:00:38:48.409
00:47:59.085 : en:00:47:59.085
01:00:39.010 : en:01:00:39.010
01:08:59.510 : en:01:08:59.510
01:19:59.753 : en:01:19:59.753
01:23:58.700 : en:01:23:58.700

Знаете ли Вы, что...

Статисты на съемочной площадке часто начинали петь между дублями, чтобы поднять общее настроение. Их любимой песней была песня группы Styx – «Come Sail Away».
Статисты на съемочной площадке называли Скотта Лоуренса «Обамой» из-за его внешнего сходства и манеры поведения.
Ошибки в фильме
Люк с водостока, куда спускаются герои фильма для укрытия от торнадо срывает два раза, первый раз на 72 минуте, затем Пит вылезает через этот люк, чтобы сесть в Титус и прикрыть им повреждённую решётку водостока. Второй раз на 78 минуте. Что примечательно, сорванная решётка, которую удерживала бронированная машина после того, как Титус унесло торнадо, уже самостоятельно удерживают двоих взрослых мужчин, что совсем неправдоподобно.
Скриншоты:


Время раздачи: круглогодичноИграю на аккордеоне за "Спасибо"

[Цитировать]



Показать сообщения:    

Текущее время: 06-Дек 19:01

Часовой пояс: UTC + 3


Вы не можете начинать темы
Вы не можете отвечать на сообщения
Вы не можете редактировать свои сообщения
Вы не можете удалять свои сообщения
Вы не можете голосовать в опросах
Вы не можете прикреплять файлы к сообщениям
Вы не можете скачивать файлы

!ВНИМАНИЕ!
Сайт не предоставляет электронные версии произведений, а занимается лишь коллекционированием и каталогизацией ссылок, присылаемых и публикуемых на форуме нашими читателями. Если вы являетесь правообладателем какого-либо представленного материала и не желаете, чтобы ссылка на него находилась в нашем каталоге, свяжитесь с нами, и мы незамедлительно удалим ее. Файлы для обмена на трекере предоставлены пользователями сайта, и администрация не несет ответственности за их содержание. Просьба не заливать файлы, защищенные авторскими правами, а также файлы нелегального содержания!