[ Сегодня идет свободное скачивание без начисления Download ]


Статистика раздачи
Нет
 
   
 
Top  
 
 
- Ришелье. Мантия и кровь / Richelieu, la pourpre et le sang (2014) DVBRip-AVC- Телекомпания: Россия
Русское название: Ришелье. Мантия и кровь
Оригинальное название: Richelieu, la pourpre et le sang
Год выпуска: 2014
Жанр: Драма, Исторический
Выпущено: Франция, Alchimic Films, France 3 (FR 3)
Премьера (мир) 11 марта 2014
Описание:
Самый влиятельный человек Франции кардинал Ришелье оказывает протекцию маркизу де Сен-Мару. Молодой маркиз, наделенный живым умом и приятной внешностью, быстро становится любимцем Людовика XIII. Но вместо того, чтобы шпионить для Ришелье, Сен-Мар становится в ряды заговорщиков...
Режиссер: Анри Эльман
Актеры: Жак Перрен, Пьер Буланже, Стефан Герен-Тиллье, Элен Сезаре, Сесиль Буа, Ингрид Доннадье, Паскаль Эльзо, Жан Делль, Жан-Марк Кудер, Матюрен Вольц, Гаэлль Бона, Эрик Буньон
Перевод: Профессиональный (двухголосый закадровый) – студия "СВ Дубль"
Продолжительность: 01:39:52
Видеокодек: MPEG-4 AVC/H.264
Битрейт видео: ~1833 Кбит/сек
Размер кадра: 768 x 418
Качество видео: DVBRip-AVC
Аудиокодек: AC-3, 2ch.
Битрейт аудио: 192 Кбит/сек

MediaInfo:

Общее
Уникальный идентификатор : 189077090855253739697459986781558952751 (0x8E3EEC50C731417887398C4E4856532F)
Полное имя : E:\Фильмы\Ришелье.Мантия.и.кровь.2014.DVBRip-AVC.mkv
Формат : Matroska
Версия формата : Version 2
Размер файла : 1,44 Гбайт
Продолжительность : 1 ч. 39 м.
Общий поток : 2066 Кбит/сек
Дата кодирования : UTC 2014-11-06 19:50:03
Программа кодирования : mkvmerge v6.1.0 ('Old Devil') built on Mar 4 2013 09:10:42
Библиотека кодирования : libebml v1.3.0 + libmatroska v1.4.0
Видео
Идентификатор : 1
Формат : AVC
Формат/Информация : Advanced Video Codec
Профиль формата : High@L4.1
Параметр CABAC формата : Да
Параметр ReFrames формата : 9 кадров
Идентификатор кодека : V_MPEG4/ISO/AVC
Продолжительность : 1 ч. 39 м.
Битрейт : 1833 Кбит/сек
Ширина : 768 пикселей
Высота : 418 пикселей
Соотношение сторон : 1,85:1
Режим частоты кадров : Постоянный
Частота кадров : 25,000 кадров/сек
Цветовое пространство : YUV
Субдискретизация насыщенности : 4:2:0
Битовая глубина : 8 бит
Тип развёртки : Прогрессивная
Бит/(Пиксели*Кадры) : 0.228
Размер потока : 1,28 Гбайт (89%)
Библиотека кодирования : x264 core 130 r2273 b3065e6
Настройки программы : cabac=1 / ref=10 / deblock=1:-3:-3 / analyse=0x3:0x133 / me=umh / subme=10 / psy=1 / psy_rd=1.00:0.10 / mixed_ref=1 / me_range=32 / chroma_me=1 / trellis=2 / 8x8dct=1 / cqm=0 / deadzone=21,11 / fast_pskip=0 / chroma_qp_offset=-2 / threads=16 / lookahead_threads=4 / sliced_threads=0 / slices=4 / nr=0 / decimate=0 / interlaced=0 / bluray_compat=0 / constrained_intra=0 / bframes=12 / b_pyramid=1 / b_adapt=2 / b_bias=0 / direct=2 / weightb=1 / open_gop=0 / weightp=1 / keyint=250 / keyint_min=23 / scenecut=40 / intra_refresh=0 / rc=crf / mbtree=0 / crf=21.0 / qcomp=0.70 / qpmin=0 / qpmax=69 / qpstep=4 / ip_ratio=1.00 / pb_ratio=1.00 / aq=1:1.00
Default : Да
Forced : Нет
Аудио
Идентификатор : 2
Формат : AC-3
Формат/Информация : Audio Coding 3
Расширение режима : CM (complete main)
Параметр Endianness формата : Big
Идентификатор кодека : A_AC3
Продолжительность : 1 ч. 39 м.
Вид битрейта : Постоянный
Битрейт : 192 Кбит/сек
Каналы : 2 канала
Расположение каналов : Front: L R
Частота : 48,0 КГц
Битовая глубина : 16 бит
Метод сжатия : С потерями
Размер потока : 137 Мбайт (9%)
Default : Да
Forced : Нет
Скриншоты: Время раздачи: с 13:00 до 23:00
Ришелье. Мантия и кровь на NoNaMe Club

[Цитировать]



Показать сообщения:    

Текущее время: 11-Дек 11:03

Часовой пояс: UTC + 3


Вы не можете начинать темы
Вы не можете отвечать на сообщения
Вы не можете редактировать свои сообщения
Вы не можете удалять свои сообщения
Вы не можете голосовать в опросах
Вы не можете прикреплять файлы к сообщениям
Вы не можете скачивать файлы

!ВНИМАНИЕ!
Сайт не предоставляет электронные версии произведений, а занимается лишь коллекционированием и каталогизацией ссылок, присылаемых и публикуемых на форуме нашими читателями. Если вы являетесь правообладателем какого-либо представленного материала и не желаете, чтобы ссылка на него находилась в нашем каталоге, свяжитесь с нами, и мы незамедлительно удалим ее. Файлы для обмена на трекере предоставлены пользователями сайта, и администрация не несет ответственности за их содержание. Просьба не заливать файлы, защищенные авторскими правами, а также файлы нелегального содержания!