[ Сегодня идет свободное скачивание без начисления Download ]


Статистика раздачи
Нет
 
   
 
Top  
 
 
-Исправление (Спасенная) / Reclaim (2014) BDRip- Год выпуска: 2014
Производство: США, Китай, Малайзия - Asia Tropical Films, Beijing Shuijing Shenlan International Media Co., Garlin Pictures Inc.
Жанр: Триллер, драма
Перевод: Двуголосый закадровый, любительский [ColdFilm]
Субтитры: Вшитые отключаемые
Язык субтитров: Английский
Дата мировой премьеры: 19 сентября 2014
Режиссер: Алан Уайт
Актеры: Джон Кьюсак, Райан Филипп, Рашель Лефевр, Джеки Уивер, Луис Гусман, Бриана Рой, Яндрес Бургос, Лиз Вероника Фу, Алекс Синтрон, Милли Руперто
Описание фильма:
Шенон и Стивен Майеры — супружеская пара, которая так и не смогла завести детей, поэтому решилась на усыновление. Их выбор пал на семилетнюю девочку Нину, которая чудом выжила после страшного землетрясения, произошедшего на Гаити. Для оформления необходимых документов пара приезжает в Пуэрто-Рико, где теперь живет девочка. Вся процедура усыновления занимает около недели, но Майерам разрешили забрать Нину раньше, чтобы они могли лучше узнать друг друга. Супруги очень счастливы и с нетерпением ждут возвращения домой вместе с дочкой. В один из дней, отдыхая на побережье океана, они знакомятся с американским парнем Бенджамином и его местными друзьями. Вскоре между ними возникает ссора, после чего Нина бесследно исчезает...

Продолжительность: 01:37:12
Качество видео: BDRip 1080p
Видеокодек: MPEG-4 AVC/H.264
Видео: H264, 11.9 Мбит/с, 1920x1036, 23.976 кадр/с
Аудио #1: Русский: AC3, 5.1, 384 Кбит/с, 48kHz, 16 bit
Аудио #2: Английский: DTS, 5.1, 1536 Кбит/с, 48 kHz, 24 bit
Сохранены оригинальные чаптеры как на Blu-Ray

MediaInfo:

Общее
Уникальный идентификатор : 198932248499995973996115397110575556567 (0x95A8F51A11D9CA65954DAD1CEA2667D7)
Полное имя : D:\Video\Reclaim.2014.BDRip.1080p.mkv
Формат : Matroska
Версия формата : Version 4 / Version 2
Размер файла : 9,42 Гбайт
Продолжительность : 1 ч. 36 м.
Общий поток : 14,0 Мбит/сек
Дата кодирования : UTC 2014-11-08 01:52:53
Программа кодирования : mkvmerge v6.3.0 ('You can't stop me!') built on Jun 28 2013 20:09:41
Библиотека кодирования : libebml v1.3.0 + libmatroska v1.4.0
Видео
Идентификатор : 1
Формат : AVC
Формат/Информация : Advanced Video Codec
Профиль формата : High@L4.1
Параметр CABAC формата : Да
Параметр ReFrames формата : 4 кадра
Идентификатор кодека : V_MPEG4/ISO/AVC
Продолжительность : 1 ч. 36 м.
Битрейт : 11,9 Мбит/сек
Ширина : 1920 пикселей
Высота : 1036 пикселей
Соотношение сторон : 1,853
Частота кадров : 23,976 кадра/сек
Цветовое пространство : YUV
Субдискретизация насыщенности : 4:2:0
Битовая глубина : 8 бит
Тип развёртки : Прогрессивная
Бит/(Пиксели*Кадры) : 0.249
Размер потока : 7,96 Гбайт (85%)
Библиотека кодирования : x264 core 142 r2479kMod dd79a61
Настройки программы : cabac=1 / ref=4 / deblock=1:-3:-3 / analyse=0x3:0x133 / me=umh / subme=10 / psy=1 / fade_compensate=0.00 / psy_rd=1.10:0.00 / mixed_ref=1 / me_range=24 / chroma_me=1 / trellis=2 / 8x8dct=1 / cqm=0 / deadzone=21,11 / fast_pskip=0 / chroma_qp_offset=-2 / threads=18 / lookahead_threads=3 / sliced_threads=0 / nr=0 / decimate=1 / interlaced=0 / bluray_compat=0 / constrained_intra=0 / fgo=0 / bframes=8 / b_pyramid=2 / b_adapt=2 / b_bias=0 / direct=3 / weightb=1 / open_gop=0 / weightp=2 / keyint=230 / keyint_min=23 / scenecut=40 / intra_refresh=0 / rc_lookahead=40 / rc=crf / mbtree=0 / crf=17.3000 / qcomp=0.65 / qpmin=0 / qpmax=69 / qpstep=4 / vbv_maxrate=50000 / vbv_bufsize=62500 / crf_max=0.0 / nal_hrd=none / filler=0 / ip_ratio=1.30 / pb_ratio=1.20 / aq=1:0.90
Язык : English
Default : Нет
Forced : Нет
Коэффициенты матрицы : BT.709-5, BT.1361, IEC 61966-2-4 709, SMPTE RP177
Аудио #1
Идентификатор : 2
Формат : AC-3
Формат/Информация : Audio Coding 3
Расширение режима : CM (complete main)
Идентификатор кодека : A_AC3
Продолжительность : 1 ч. 36 м.
Вид битрейта : Постоянный
Битрейт : 384 Кбит/сек
Каналы : 6 каналов
Расположение каналов : Front: L C R, Side: L R, LFE
Частота : 48,0 КГц
Битовая глубина : 16 бит
Метод сжатия : С потерями
Размер потока : 264 Мбайт (3%)
Заголовок : ColdFilm
Язык : Russian
Default : Нет
Forced : Нет
Аудио #2
Идентификатор : 3
Формат : DTS
Формат/Информация : Digital Theater Systems
Идентификатор кодека : A_DTS
Продолжительность : 1 ч. 36 м.
Вид битрейта : Постоянный
Битрейт : 1510 Кбит/сек
Каналы : 6 каналов
Расположение каналов : Front: L C R, Side: L R, LFE
Частота : 48,0 КГц
Битовая глубина : 24 бит
Метод сжатия : С потерями
Размер потока : 1,01 Гбайт (11%)
Язык : English
Default : Нет
Forced : Нет
Текст
Идентификатор : 4
Формат : UTF-8
Идентификатор кодека : S_TEXT/UTF8
Идентификатор кодека/Информация : UTF-8 Plain Text
Язык : English
Default : Нет
Forced : Нет
Меню
00:00:00.000 : en:00:00:00.000
00:06:08.785 : en:00:06:08.785
00:11:28.438 : en:00:11:28.438
00:16:17.643 : en:00:16:17.643
00:20:51.542 : en:00:20:51.542
00:26:44.895 : en:00:26:44.895
00:31:06.656 : en:00:31:06.656
00:35:18.700 : en:00:35:18.700
00:40:43.358 : en:00:40:43.358
00:47:35.436 : en:00:47:35.436
00:53:24.785 : en:00:53:24.785
01:02:04.554 : en:01:02:04.554
01:07:00.016 : en:01:07:00.016
01:12:54.912 : en:01:12:54.912
01:19:21.423 : en:01:19:21.423
01:25:08.186 : en:01:25:08.186
Скриншоты:

Время раздачи: с 10:00 до 20:00 (GMT+2) - до 10 скачавшихНе забываем говорить

[Цитировать]



Показать сообщения:    

Текущее время: 09-Дек 10:47

Часовой пояс: UTC + 3


Вы не можете начинать темы
Вы не можете отвечать на сообщения
Вы не можете редактировать свои сообщения
Вы не можете удалять свои сообщения
Вы не можете голосовать в опросах
Вы не можете прикреплять файлы к сообщениям
Вы не можете скачивать файлы

!ВНИМАНИЕ!
Сайт не предоставляет электронные версии произведений, а занимается лишь коллекционированием и каталогизацией ссылок, присылаемых и публикуемых на форуме нашими читателями. Если вы являетесь правообладателем какого-либо представленного материала и не желаете, чтобы ссылка на него находилась в нашем каталоге, свяжитесь с нами, и мы незамедлительно удалим ее. Файлы для обмена на трекере предоставлены пользователями сайта, и администрация не несет ответственности за их содержание. Просьба не заливать файлы, защищенные авторскими правами, а также файлы нелегального содержания!