[ Сегодня идет свободное скачивание без начисления Download ]


Статистика раздачи
Нет
 
   
 
Top  
 
 
-Всё, что вы хотели знать о сексе и налогах / Spies & Glistrup (2013) HDRip- Год выпуска: 2013
Производство: Дания, AlphaVille Pictures Copenhagen, Nordisk Film Production
Жанр: Драма
Перевод: Многоголосый закадровый, профессиональный [Лицензия]
Субтитры: Отсутствуют
Режиссер: Кристоффер Боэ
Продюсер: Тине Грю Пфайфер, Кэролайн Шлутер, Рене Эзра
Актеры: Йохан Филип Асбек, Николас Бро, Еспер Кристенсен, Якоб Хёйлев Ёргенсон, Каспер Лайснер, Трине Паллесен
Описание фильма:
История о двух друзьях, которые являются абсолютными противоположностями друг другу. Спис представляет из себя человека, способного на любые невероятные вещи, к тому же, он является очень крупным магнатом-богачом. Для него ничего не стоит устроить встречу с представителями прессы в присутствии молодых голых девушек. Он готов даже на то, чтобы войти в состоянии эрекции к огромной злой обезьяне в клетку. Его же друг Глиструп - наоборот - человек, для которого семейная жизнь важнее всяких тусовок. Будучи гениальным юристом, который способен найти в любом законе дыру, он ни разу не изменял жене. Именно Глиструп помог в свое время в 1956 году своему другу Спису провернуть невероятную аферу, благодаря которой тот стал единовластным хозяином туристического агенства и авиакомпании. Именно эта афера и стала началом продолжительной дружбы двух абсолютно разных по характеру людей.
Детям до 17 лет обязательно присутствие родителей!

Дата мировой премьеры: 29 августа 2013
Дата российской премьеры: 1 мая 2014, «Cinema Prestige»
Продолжительность: 01:55:06
Качество видео: HDRip
Видеокодек: Xvid
Битрейт видео: ~1423 Kbit/s
Размер кадра: 720 x 304
Аудиокодек: AC3 5.1
Битрейт аудио: 384 kb/s

MediaInfo

Общее
Полное имя                               : E:\Фильмы\Spies_&_Glistrup.2013.HDRip.avi
Формат                                   : AVI
Формат/Информация                        : Audio Video Interleave
Размер файла                             : 1,46 Гбайт
Продолжительность                        : 1 ч. 55 м.
Общий поток                              : 1817 Кбит/сек
Программа кодирования                    : VirtualDubMod 1.5.10.2 (build 2540/release)
Библиотека кодирования                   : VirtualDubMod build 2540/release
Видео
Идентификатор                            : 0
Формат                                   : MPEG-4 Visual
Профиль формата                          : Advanced Simple@L5
Параметр BVOP формата                    : 2
Параметр QPel формата                    : Нет
Параметр GMC формата                     : Без точки перехода
Параметр матрицы формата                 : Default (MPEG)
Идентификатор кодека                     : XVID
Идентификатор кодека/Подсказка           : XviD
Продолжительность                        : 1 ч. 55 м.
Битрейт                                  : 1423 Кбит/сек
Ширина                                   : 720 пикселей
Высота                                   : 304 пикселя
Соотношение сторон                       : 2,35:1
Частота кадров                           : 24,000 кадра/сек
Цветовое пространство                    : YUV
Субдискретизация насыщенности            : 4:2:0
Битовая глубина                          : 8 бит
Тип развёртки                            : Прогрессивная
Метод сжатия                             : С потерями
Бит/(Пиксели*Кадры)                      : 0.271
Размер потока                            : 1,14 Гбайт (78%)
Библиотека кодирования                   : XviD 1.2.1 (UTC 2008-12-04)
Аудио
Идентификатор                            : 1
Формат                                   : AC-3
Формат/Информация                        : Audio Coding 3
Расширение режима                        : CM (complete main)
Параметр Endianness формата              : Big
Идентификатор кодека                     : 2000
Продолжительность                        : 1 ч. 55 м.
Вид битрейта                             : Постоянный
Битрейт                                  : 384 Кбит/сек
Каналы                                   : 6 каналов
Расположение каналов                     : Front: L C R, Side: L R, LFE
Частота                                  : 48,0 КГц
Битовая глубина                          : 16 бит
Метод сжатия                             : С потерями
Размер потока                            : 316 Мбайт (21%)
Выравнивание                             : Разделение по промежуткам
Продолжительность промежутка             : 42  мс. (1,00 видеокадр)
Время предзагрузки промежутка            : 500  мс.
Скриншоты:
Время раздачи:с 23:00 до 8:30

[Цитировать]



Показать сообщения:    

Текущее время: 11-Дек 11:05

Часовой пояс: UTC + 3


Вы не можете начинать темы
Вы не можете отвечать на сообщения
Вы не можете редактировать свои сообщения
Вы не можете удалять свои сообщения
Вы не можете голосовать в опросах
Вы не можете прикреплять файлы к сообщениям
Вы не можете скачивать файлы

!ВНИМАНИЕ!
Сайт не предоставляет электронные версии произведений, а занимается лишь коллекционированием и каталогизацией ссылок, присылаемых и публикуемых на форуме нашими читателями. Если вы являетесь правообладателем какого-либо представленного материала и не желаете, чтобы ссылка на него находилась в нашем каталоге, свяжитесь с нами, и мы незамедлительно удалим ее. Файлы для обмена на трекере предоставлены пользователями сайта, и администрация не несет ответственности за их содержание. Просьба не заливать файлы, защищенные авторскими правами, а также файлы нелегального содержания!