[ Сегодня идет свободное скачивание без начисления Download ]


Статистика раздачи
Нет
 
   
 
Top  
 
 
-Дурацкое дело нехитрое / Kraftidioten (2014) DVDRip- Год выпуска: 2014
Производство: Норвегия, Швеция, Дания, Film i V?st, Paradox, Paradox Film 2
Жанр: Боевик, Комедия, Криминал
Перевод: Многоголосый закадровый, профессиональный
Дата мировой премьеры: 10 февраля 2014
Дата российской премьеры: 23 октября 2014, «Русский Репортаж»
Режиссер: Ганс Петтер Моланд
Продюсер: Финн Гьердрум, Стейн Б. Квае, Рой Андерсон
Актеры: Стеллан Скарсгард, Якоб Офтебро, Кристофер Хивджу, Биргитта Йорт Сёренсен, Тобиас Зантельман, Бруно Ганц, Сергей Трифунович, Пол Сверре Валхейм Хаген, Петер Андерссон, Андерс Баасмо Кристиансен
Описание фильма:
Норвегия. Зима. Трудолюбивый Нилс управляет мощным плужным снегоочистителем, который очищает дороги и горные проходы негостеприимного обледенелого ландшафта местности, где он сам живёт. Совсем недавно он был признан жителем года за свои старания, а теперь получает известие о том, что его сын погиб в результате передозировки героина. Отказываясь верить в правдивость официальной версии смерти своего сына, он начинает тайное расследование с целью найти предполагаемых убийц парня. Однако дальнейшие события разворачиваются самым непредсказуемым образом, и ему приходится стать таинственным героем, внушающим страх в преступном мире.

Продолжительность: 01:39:43
Качество видео: DVDRip
Видеокодек: Xvid
Битрейт видео: ~1411 kb/s
Размер кадра: 720x304
Аудио #1_Английский: AC3, 2 ch, 224 Кбит/с
Аудио #2_Русский: AC3, 2 ch, 224 Кбит/с

Рецензия:

Зачем снегоуборщику обрез?
Вы когда-нибудь смотрели датское кино, читали финские книжки? Знаете тогда про суровый скандинавский юмор, родившийся под северным сиянием в снегах Лапландии? В странах, где уровень жизни также высок, как и количество самоубийств, принято шутить в основном о боли и смерти, причем это вовсе не похоже на американский черный юмор про живых мертвецов и съеденные мозги, от шуток скандинавов хочется завыть от тоски, но все равно смешно.
Жанр этого фильма Ганса Петтера Моланда определяют как боевик, криминал, комедия: морды бьют, есть трупы и мафия, только вот шуток, произнесенных ртом, почти вовсе нет, но все равно смешно.
Так к чему это все? У Нилса (Стеллана Скарсгарда) — оператора снегоуборочной машины и человека года — умер сын, говорят, от передозировки, но Нилс не верит и правильно делает. Око — за око, зуб — за зуб. Но торжество справедливости тут ни при чем, так как справедливость в нашем мире становится вполне условным понятием, которое у каждого, как выясняется, свое и каждый готов его отстаивать практически до последней капли крови, но все равно смешно.
Смешно потому что фамилия у главного героя Дикман (если кто не в курсе — посмотрите в словаре Dickman), помимо неприличного значения, есть и другие довольно подходящие по сюжету, например, «сыщик», «детектив». Смешно потому что смеется Нилс единственный раз в фильме, перед тем как прострелить голову рыжему чуваку, смешно, потому что и среди мафии есть брутальные скандинавское геи, смешно потому что похищенный ребенок рассуждает о стокгольмском синдроме, смешно, потому что «маленький человек» берет в руки обрез, но его все равно никто не замечает а жизнь становится полным абсурдом.
А еще в фильме очень красивые пейзажи — горы снега и ледяной водопад, в который Нилс сбрасывает трупы в сетке, чтобы рыбы их ели сквозь ячейки.
«Золотого медведя» в Берлине фильм не получил, может быть, потому что показался кинокритикам слишком легкомысленным…
Дурачиться надо уметь!
Рецензия автора: supi

MediaInfo:

Общее
Полное имя : E:\Фильмы\Дурацкое.дело.нехитрое.2014.DVDRip..avi
Формат : AVI
Формат/Информация : Audio Video Interleave
Размер файла : 1,46 Гбайт
Продолжительность : 1 ч. 51 м.
Общий поток : 1873 Кбит/сек
Программа кодирования : VirtualDubMod 1.5.10.2 (build 2540/release)
Библиотека кодирования : VirtualDubMod build 2540/release
Видео
Идентификатор : 0
Формат : MPEG-4 Visual
Профиль формата : Advanced Simple@L5
Параметр BVOP формата : 1
Параметр QPel формата : Нет
Параметр GMC формата : Без точки перехода
Параметр матрицы формата : Default (MPEG)
Идентификатор кодека : XVID
Идентификатор кодека/Подсказка : XviD
Продолжительность : 1 ч. 51 м.
Битрейт : 1411 Кбит/сек
Ширина : 720 пикселей
Высота : 304 пикселя
Соотношение сторон : 2,35:1
Частота кадров : 25,000 кадров/сек
Цветовое пространство : YUV
Субдискретизация насыщенности : 4:2:0
Битовая глубина : 8 бит
Тип развёртки : Прогрессивная
Метод сжатия : С потерями
Бит/(Пиксели*Кадры) : 0.258
Размер потока : 1,10 Гбайт (75%)
Библиотека кодирования : XviD 1.2.1 (UTC 2008-12-04)
Аудио #1
Идентификатор : 1
Формат : AC-3
Формат/Информация : Audio Coding 3
Расширение режима : CM (complete main)
Параметр Endianness формата : Big
Идентификатор кодека : 2000
Продолжительность : 1 ч. 51 м.
Вид битрейта : Постоянный
Битрейт : 224 Кбит/сек
Каналы : 2 канала
Расположение каналов : Front: L R
Частота : 48,0 КГц
Битовая глубина : 16 бит
Метод сжатия : С потерями
Размер потока : 179 Мбайт (12%)
Выравнивание : Разделение по промежуткам
Продолжительность промежутка : 40 мс. (1,00 видеокадр)
Время предзагрузки промежутка : 500 мс.
Аудио #2
Идентификатор : 2
Формат : AC-3
Формат/Информация : Audio Coding 3
Расширение режима : CM (complete main)
Параметр Endianness формата : Big
Идентификатор кодека : 2000
Продолжительность : 1 ч. 51 м.
Вид битрейта : Постоянный
Битрейт : 224 Кбит/сек
Каналы : 2 канала
Расположение каналов : Front: L R
Частота : 48,0 КГц
Битовая глубина : 16 бит
Метод сжатия : С потерями
Размер потока : 179 Мбайт (12%)
Выравнивание : Разделение по промежуткам
Продолжительность промежутка : 40 мс. (1,00 видеокадр)
Время предзагрузки промежутка : 500 мс.
Скриншоты:
Время раздачи: с 23:00 до 8:30

[Цитировать]

Топик был перенесен из форума Новинки кинопроката в форум Боевик
Henkok



Показать сообщения:    

Текущее время: 10-Дек 11:58

Часовой пояс: UTC + 3


Вы не можете начинать темы
Вы не можете отвечать на сообщения
Вы не можете редактировать свои сообщения
Вы не можете удалять свои сообщения
Вы не можете голосовать в опросах
Вы не можете прикреплять файлы к сообщениям
Вы не можете скачивать файлы

!ВНИМАНИЕ!
Сайт не предоставляет электронные версии произведений, а занимается лишь коллекционированием и каталогизацией ссылок, присылаемых и публикуемых на форуме нашими читателями. Если вы являетесь правообладателем какого-либо представленного материала и не желаете, чтобы ссылка на него находилась в нашем каталоге, свяжитесь с нами, и мы незамедлительно удалим ее. Файлы для обмена на трекере предоставлены пользователями сайта, и администрация не несет ответственности за их содержание. Просьба не заливать файлы, защищенные авторскими правами, а также файлы нелегального содержания!